<?xml version="1.0" standalone="no"?>
<!DOCTYPE svg PUBLIC "-//W3C//DTD SVG 1.1//EN" "http://www.w3.org/Graphics/SVG/1.1/DTD/svg11.dtd" >
<svg xmlns="http://www.w3.org/2000/svg" xmlns:xlink="http://www.w3.org/1999/xlink" version="1.1">
<metadata>
Created by FontForge 20201107 at Sat Sep 17 20:36:54 2022
 By 
Copyright (c) 2015 by Paula Nazal, Marcelo Quiroz and Daniel Hernandez. All rights reserved.
</metadata>
<defs>
<font id="RevistaInline-Black" horiz-adv-x="1228" >
  <font-face 
    font-family="Revista Inline Black"
    font-weight="950"
    font-stretch="normal"
    units-per-em="2048"
    panose-1="0 0 0 0 0 0 0 0 0 0"
    ascent="1536"
    descent="-512"
    x-height="1128"
    cap-height="1327"
    bbox="-61 -610 2767 1806"
    underline-thickness="102"
    underline-position="-307"
    unicode-range="U+000D-FB02"
  />
<missing-glyph horiz-adv-x="1290" 
d="M205 1454h880v-1454h-880v1454zM338 1382l307 -569l307 569h-614zM600 727l-313 582v-1164zM692 727l312 -582v1164zM645 641l-307 -569h614z" />
    <glyph glyph-name="fi" unicode="fi" horiz-adv-x="1808" 
d="M1065 1128l12 -350h-18l-4 25q-23 132 -106.5 213.5t-213.5 81.5h-237v-557h141q87 0 130 49.5t62 142.5l3 10h18v-436h-18l-3 12q-28 191 -192 191h-141v-479l116 -15v-16h-540v16l116 15v1067l-116 14v16h991zM1735 1112l-117 -14v-1067l117 -15v-16h-541v16l117 15
v1067l-117 14v16h541v-16zM346 139q19 228 19 426q0 196 -19 424h-4q-18 -216 -18 -424q0 -210 18 -426h4zM1466 139q19 228 19 426q0 196 -19 424h-4q-18 -216 -18 -424q0 -210 18 -426h4z" />
    <glyph glyph-name="fl" unicode="fl" horiz-adv-x="2213" 
d="M1065 1128l12 -350h-18l-4 25q-23 132 -106.5 213.5t-213.5 81.5h-237v-557h141q87 0 130 49.5t62 142.5l3 10h18v-436h-18l-3 12q-28 191 -192 191h-141v-479l116 -15v-16h-540v16l116 15v1067l-116 14v16h991zM2161 330h18l-12 -330h-973v16l117 15v1067l-117 14v16
h541v-16l-117 -14v-1067h217q134 0 219.5 75.5t104.5 208.5zM346 139q19 228 19 426q0 196 -19 424h-4q-18 -216 -18 -424q0 -210 18 -426h4zM1466 139q19 228 19 426q0 196 -19 424h-4q-18 -216 -18 -424q0 -210 18 -426h4z" />
    <glyph glyph-name=".notdef" horiz-adv-x="1290" 
d="M205 1454h880v-1454h-880v1454zM338 1382l307 -569l307 569h-614zM600 727l-313 582v-1164zM692 727l312 -582v1164zM645 641l-307 -569h614z" />
    <glyph glyph-name=".null" horiz-adv-x="0" 
 />
    <glyph glyph-name="nonmarkingreturn" horiz-adv-x="682" 
 />
    <glyph glyph-name="CR" unicode="&#xd;" horiz-adv-x="245" 
 />
    <glyph glyph-name="space" unicode=" " horiz-adv-x="483" 
 />
    <glyph glyph-name="exclam" unicode="!" horiz-adv-x="442" 
d="M209 295q0 120 -18.5 255.5t-41 235t-41 216t-18.5 202.5q0 62 34 100.5t97 38.5t97 -38.5t34 -100.5q0 -86 -18.5 -202.5t-41 -216t-41 -235t-18.5 -255.5h-24zM221 1260h-2q-12 -74 -12 -162t12 -162h2q12 74 12 162t-12 162zM96 102q0 57 35 88t90 31t90 -31t35 -88
q0 -56 -35 -87t-90 -31t-90 31t-35 87z" />
    <glyph glyph-name="quotedbl" unicode="&#x22;" horiz-adv-x="548" 
d="M166 1092h-25l-73 335q0 41 23 68t63 27t63 -27t23 -68zM408 1092h-25l-74 335q0 41 23 68t63 27t63 -27t23 -68z" />
    <glyph glyph-name="numbersign" unicode="#" horiz-adv-x="1087" 
d="M997 721h-217v-340h217v-31h-217v-250h-35v250h-399v-250h-35v250h-221v31h221v340h-221v31h221v272h35v-272h399v272h35v-272h217v-31zM745 381v340h-399v-340h399z" />
    <glyph glyph-name="dollar" unicode="$" horiz-adv-x="1069" 
d="M999 379q0 -168 -117 -274.5t-309 -118.5v-133h-34v131h-13q-100 0 -207 22t-164 44l-57 22l-16 313h18l15 -51q11 -30 20 -52.5t28 -58t39.5 -61.5t53.5 -55.5t70 -48.5t89 -31.5t111 -12.5h13v488q-32 21 -85 52t-89.5 53t-82.5 53.5t-77 62t-59 68t-42 82t-14 94.5
q0 82 27 147.5t71 106.5t104 68.5t120.5 39.5t126.5 14v136h34v-136q60 -1 118 -9.5t98 -20t72 -23.5t47 -20l16 -8l10 -320h-23l-8 43q-6 25 -8 34.5t-11.5 40.5t-17.5 48t-23.5 47t-31.5 48.5t-41 41.5t-53 35.5t-65 22t-79 10.5v-459q21 -13 71 -44t75.5 -47t69.5 -47
t68.5 -54t55.5 -57.5t47 -66.5t27.5 -73.5t11.5 -85.5zM539 1313q-94 -6 -144.5 -51.5t-50.5 -126.5q0 -77 50 -136.5t145 -121.5v436zM864 238q12 45 11.5 86t-9.5 74t-31 67.5t-45.5 60.5t-63 58t-73 55t-84.5 57q-29 19 -72.5 47t-67.5 43.5t-56.5 39t-50 40.5t-38 42
t-30 49.5t-16.5 56t-7 67.5h-4q-5 -32 -4.5 -60.5t3.5 -51.5t15.5 -47t22 -40.5t32 -38.5t37 -35t46 -35t49 -33.5t56.5 -37t59 -38.5q62 -42 96.5 -66.5t78.5 -60t66.5 -64t44 -66t28 -79t3.5 -90.5h4zM573 16q172 21 172 203q0 80 -44.5 141.5t-127.5 118.5v-463z" />
    <glyph glyph-name="percent" unicode="%" horiz-adv-x="1658" 
d="M752 977q0 -153 -93.5 -260t-252.5 -107q-107 0 -187 51.5t-120 134t-40 181.5q0 153 93.5 259.5t253.5 106.5q107 0 187 -51.5t119.5 -133.5t39.5 -181zM1139 1343h39l-648 -1343h-38zM406 641q118 0 118 336t-118 336q-119 0 -119 -336t119 -336zM236 1231v2
q-19 -19 -36.5 -46t-35 -85t-17.5 -125q0 -94 28.5 -158t60.5 -96v2q-22 27 -39 98.5t-17 153.5q0 83 17 155t39 99zM575 723q33 31 61 95t28 159q0 97 -28 161t-61 95v-2q23 -26 39.5 -97.5t16.5 -156.5q0 -83 -16.5 -154.5t-39.5 -97.5v-2zM1253 717q159 0 252.5 -107
t93.5 -260q0 -99 -39.5 -181t-119.5 -133.5t-187 -51.5t-187 51.5t-119.5 133.5t-39.5 181q0 153 93.5 260t252.5 107zM1253 14q119 0 119 336t-119 336q-118 0 -118 -336t118 -336zM1083 604v2q-32 -32 -60 -95.5t-28 -160.5q0 -94 28 -158t60 -96v2q-22 26 -38.5 98
t-16.5 154q0 84 16.5 156t38.5 98zM1423 96q32 30 60 94.5t28 159.5q0 97 -27.5 161t-60.5 95v-2q23 -26 39.5 -97.5t16.5 -156.5q0 -83 -16.5 -154.5t-39.5 -97.5v-2z" />
    <glyph glyph-name="ampersand" unicode="&#x26;" horiz-adv-x="1441" 
d="M1315 721q0 -112 -66.5 -248.5t-148.5 -212.5l172 -233l84 -11v-16h-400l-59 84q-149 -100 -375 -100q-211 0 -339 100t-128 264q0 68 16 125t46.5 99.5t63.5 74.5t78.5 57t79 39.5t77.5 30.5q-97 154 -97 291q0 121 80.5 199.5t235.5 78.5q173 0 250.5 -62t77.5 -163
q0 -42 -20 -82.5t-50.5 -70.5t-69.5 -57t-73.5 -43.5t-67.5 -28.5q22 -33 27 -39l374 -514q64 84 83 124q34 71 34 156q0 72 -47.5 121t-146.5 49v17h411v-17zM666 1313q-40 0 -69.5 -37.5t-29.5 -134.5q0 -133 105 -289q42 36 77 107.5t35 156.5q0 89 -32 143t-86 54z
M842 1198q16 -47 16 -100q0 -62 -49 -123q16 11 31 25.5t30 42t15 55.5q0 63 -43 100zM1028 129l2 2q-135 226 -375 574q-14 21 -45.5 66.5t-41 60t-33 49.5t-29.5 47.5t-21 40t-18 40.5t-10 36t-7 40.5t0.5 39t4.5 44.5h-4q-12 -50 -12.5 -92t7.5 -80.5t34 -89t56 -99
t85 -128.5q175 -252 407 -551zM684 82q127 0 195 29l-392 557l-59 86q-37 -36 -59.5 -118.5t-22.5 -156.5q0 -84 19.5 -152.5t51.5 -113.5t76.5 -75t91.5 -43t99 -13zM418 74l2 4q-83 32 -141 110.5t-58 190.5q0 77 25 145.5t63 116.5l-4 4q-47 -41 -86 -112t-39 -154
q0 -124 72 -204t166 -101z" />
    <glyph glyph-name="quotesingle" unicode="'" horiz-adv-x="307" 
d="M166 1092h-25l-73 335q0 41 23 68t63 27t63 -27t23 -68z" />
    <glyph glyph-name="parenleft" unicode="(" horiz-adv-x="794" 
d="M811 -362q-154 0 -291.5 70t-238 192.5t-159.5 297.5t-59 375q0 264 95 477.5t266.5 336t386.5 122.5v-30q-50 0 -100 -21.5t-100 -65.5t-92 -118t-74 -171t-49 -233.5t-15 -296.5q3 -192 30 -347.5t69.5 -257.5t98 -171t113.5 -99t119 -30v-30zM252 582
q0 248 43.5 419.5t114.5 251.5l-2 2q-213 -217 -213 -673q0 -447 213 -664l2 2q-71 80 -114.5 249.5t-43.5 412.5z" />
    <glyph glyph-name="parenright" unicode=")" horiz-adv-x="794" 
d="M-16 -362v30q50 0 99.5 21.5t98.5 65.5t90.5 118t73.5 171t50 233t18 296q0 191 -26 347.5t-69 258.5t-99.5 171t-115.5 99t-120 30v30q161 0 301 -72t237.5 -196.5t153 -297.5t55.5 -370q0 -200 -59 -375t-159 -297.5t-237.5 -192.5t-291.5 -70zM545 582
q0 -243 -43.5 -412.5t-114.5 -249.5l2 -2q213 217 213 664q0 456 -213 673l-2 -2q71 -80 114.5 -251.5t43.5 -419.5z" />
    <glyph glyph-name="asterisk" unicode="*" horiz-adv-x="925" 
d="M778 1044q60 -34 60 -88q0 -39 -26 -67.5t-64 -28.5q-26 0 -66 21q-26 15 -92 94.5t-111 111.5q5 -55 42.5 -151.5t37.5 -126.5q0 -48 -24.5 -79.5t-71.5 -31.5t-71.5 31.5t-24.5 79.5q0 30 37 127t42 151q-45 -32 -110.5 -111.5t-91.5 -94.5q-40 -21 -66 -21
q-39 0 -64.5 30.5t-25.5 65.5q0 54 59 88q26 16 129.5 32t153.5 40q-50 24 -153.5 40t-129.5 32q-59 34 -59 88q0 39 26 67.5t64 28.5q28 0 66 -20q26 -15 91.5 -95t110.5 -112q-5 54 -42 151t-37 127q0 48 24.5 79.5t71.5 31.5t71.5 -31.5t24.5 -79.5q0 -30 -37.5 -126.5
t-42.5 -151.5q45 32 111 112t92 95q38 20 66 20q39 0 64.5 -30.5t25.5 -65.5q0 -54 -60 -88q-26 -16 -129 -32t-153 -40q50 -24 153 -40t129 -32z" />
    <glyph glyph-name="plus" unicode="+" horiz-adv-x="899" 
d="M825 547v-31h-358v-350h-35v350h-358v31h358v342h35v-342h358z" />
    <glyph glyph-name="comma" unicode="," horiz-adv-x="528" 
d="M240 281q91 0 151 -59.5t60 -194.5q0 -85 -22.5 -148t-52.5 -94.5t-70.5 -50.5t-66.5 -23t-51 -4v27q40 0 78.5 15.5t74 47.5t57.5 91.5t22 138.5q0 55 -17 104l-8 -2q0 -68 -43.5 -106.5t-111.5 -38.5q-69 0 -112.5 38.5t-43.5 108.5t44 110t112 40z" />
    <glyph glyph-name="hyphen" unicode="-" horiz-adv-x="839" 
d="M102 547h635v-31h-635v31z" />
    <glyph glyph-name="period" unicode="." horiz-adv-x="479" 
d="M84 131q0 70 44 110t112 40t111.5 -40t43.5 -110t-43.5 -108.5t-111.5 -38.5q-69 0 -112.5 38.5t-43.5 108.5z" />
    <glyph glyph-name="slash" unicode="/" horiz-adv-x="821" 
d="M731 1438h39l-680 -1438h-39z" />
    <glyph glyph-name="zero" unicode="0" horiz-adv-x="1265" 
d="M633 -16q-131 0 -237 54.5t-174.5 148t-105 216t-36.5 261.5t36.5 261t105 215.5t174.5 148t237 54.5t237 -54.5t174.5 -148t105 -215.5t36.5 -261t-36.5 -261.5t-105 -216t-174.5 -148t-237 -54.5zM633 14q215 0 215 650q0 649 -215 649t-215 -649q0 -650 215 -650z
M268 664q0 430 101 518l-2 2q-63 -50 -103.5 -181.5t-40.5 -338.5q0 -205 40.5 -336t103.5 -181l2 3q-101 88 -101 514zM997 664q0 -427 -100 -514l2 -3q63 49 103 180.5t40 336.5q0 208 -40 339t-103 181l-2 -2q100 -87 100 -518z" />
    <glyph glyph-name="one" unicode="1" horiz-adv-x="878" 
d="M625 37l245 -21v-16h-798v16l245 21v1169l-258 -80v29l551 172h15v-1290zM467 139q20 362 20 525q0 161 -20 524h-4q-21 -381 -21 -524q0 -144 21 -525h4z" />
    <glyph glyph-name="two" unicode="2" horiz-adv-x="1089" 
d="M977 395h18l-26 -395h-912v125q12 7 33.5 20.5t83 60t117.5 98t124 132.5t117.5 165t83 194.5t33.5 222.5q0 133 -55.5 214t-169.5 81q-111 0 -197 -58l2 -20h11q66 0 106.5 -45t40.5 -103t-40.5 -103.5t-106.5 -45.5q-67 0 -107.5 43.5t-40.5 105.5q0 46 24 90t70 81.5
t123.5 61t175.5 23.5q252 0 377 -99t125 -265q0 -64 -24 -130.5t-64 -124.5t-92.5 -114.5t-110 -104t-115 -90t-110 -74.5t-92.5 -55.5t-64 -35.5l-24 -12h547q125 0 137 135zM795 965q0 -88 -47.5 -188t-92.5 -140l4 -4q24 20 49.5 48t56.5 71.5t51 99.5t20 113
q0 47 -11 88.5t-25.5 68t-38.5 53t-38.5 38.5t-36.5 28l-4 -4q46 -36 79.5 -109t33.5 -163zM856 117v4q-54 3 -149.5 10.5t-145.5 7.5q-47 0 -144 -7.5t-151 -10.5v-4q59 -3 154 -11t141 -8q49 0 142.5 8t152.5 11z" />
    <glyph glyph-name="three" unicode="3" horiz-adv-x="1089" 
d="M582 684q185 0 306.5 -102.5t121.5 -243.5q0 -157 -132 -255.5t-403 -98.5q-99 0 -177.5 25t-124.5 65t-69.5 85t-23.5 89q0 62 40 105.5t107 43.5q66 0 107 -45.5t41 -103.5t-41 -103t-107 -45h-8l-4 -24q92 -62 199 -62q49 0 91.5 15t81.5 49t62 100.5t23 159.5
q0 81 -23 147t-60.5 105.5t-80.5 60.5t-86 21h-27v30h27q80 0 144.5 74.5t64.5 212.5q0 75 -13.5 133t-34.5 93.5t-50.5 58t-58 31t-60.5 8.5q-112 0 -199 -62l4 -24h8q66 0 107 -45t41 -103t-41 -103.5t-107 -45.5q-67 0 -107 43.5t-40 105.5q0 47 24 92.5t70.5 84.5
t124.5 63t176 24q250 0 372 -98.5t122 -255.5q0 -125 -109.5 -212t-277.5 -87v-6zM680 1241q37 -18 67.5 -74.5t30.5 -142.5q0 -88 -30 -148t-68 -75l4 -4q46 14 89.5 72.5t43.5 154.5q0 50 -14.5 91.5t-37 67t-42.5 40.5t-39 22zM705 78q26 14 51 34t51.5 51.5t42.5 77
t16 97.5q0 53 -16.5 99t-42.5 77t-51 51t-51 33l-5 -4q49 -26 85 -97.5t36 -158.5q0 -85 -36.5 -157.5t-84.5 -98.5z" />
    <glyph glyph-name="four" unicode="4" horiz-adv-x="1126" 
d="M1083 272h-202v-235l184 -21v-16h-696v16l204 21v235h-557v31l850 1024h15v-1024h202v-31zM731 139q2 31 8.5 134t9.5 173.5t3 139.5q0 70 -3 137.5t-9.5 154.5t-8.5 130h-4q-2 -37 -8 -128.5t-9 -157.5t-3 -136q0 -54 2 -117t4.5 -107t7 -116.5t6.5 -106.5h4zM59 303
h514v615z" />
    <glyph glyph-name="five" unicode="5" horiz-adv-x="1073" 
d="M440 817q268 0 422 -106.5t154 -317.5t-152 -310t-424 -99q-168 0 -271 75.5t-103 188.5q0 62 40 105.5t107 43.5q66 0 106.5 -45.5t40.5 -103.5t-40.5 -103t-106.5 -45h-8l-4 -26q83 -60 178 -60q45 0 85 9.5t80 35.5t69 67.5t47 109.5t18 157q0 90 -18 160t-47 112.5
t-69 70t-80 38t-85 10.5q-64 0 -123 -13t-86 -27l-27 -13v596h738l30 158h19l-27 -395l-725 -3v-309q110 39 262 39zM236 1210v-4q55 -3 151 -10.5t143 -7.5q50 0 145.5 7.5t149.5 10.5v4q-59 3 -152.5 11t-142.5 8q-46 0 -140 -8t-154 -11zM709 117q26 14 51 36t51 56.5
t42.5 84.5t16.5 107q0 58 -16 108t-43 84.5t-51.5 56.5t-50.5 36l-4 -4q48 -29 84 -108.5t36 -172.5t-36 -172t-84 -108z" />
    <glyph glyph-name="six" unicode="6" horiz-adv-x="1187" 
d="M625 817q136 0 238 -31t161.5 -87t88 -126t28.5 -155q0 -90 -35 -168.5t-101 -138t-168.5 -93.5t-228.5 -34t-228.5 42t-168 115.5t-100.5 170t-35 208.5q0 134 40 250.5t105 198.5t151.5 148.5t175 107.5t179.5 68.5t162 38.5t125 11v-30q-47 0 -106.5 -19.5t-127.5 -63
t-130 -104t-116.5 -151t-84.5 -195.5q68 37 176 37zM367 147l2 3q-103 103 -103 391q0 103 27.5 200t68 167.5t94 132t98 98.5t87.5 63l-2 2q-51 -29 -96 -60.5t-107.5 -92.5t-106.5 -129t-76 -168.5t-32 -212.5q0 -137 40.5 -236.5t105.5 -157.5zM608 14q195 0 195 383
q0 209 -56 298t-161 89q-82 0 -146 -39q-26 -111 -26 -225q0 -506 194 -506zM834 109q59 33 110 108.5t51 183.5q0 109 -51 184.5t-110 108.5l-5 -4q48 -29 84.5 -112.5t36.5 -176.5t-36.5 -176t-84.5 -112z" />
    <glyph glyph-name="seven" unicode="7" horiz-adv-x="1034" 
d="M1065 1327v-125h-2q-15 -11 -37 -28.5t-72.5 -70t-96.5 -115t-100.5 -165t-93.5 -217t-65.5 -273.5t-26.5 -333h-307q0 116 27 233.5t68 213t98 189.5t110 162t112 132t94.5 97t66.5 60h-744l-28 -157h-21l27 395zM227 1206q58 -3 162.5 -10.5t155.5 -7.5q53 0 154.5 7.5
t160.5 10.5v4q-64 3 -163.5 11t-151.5 8q-50 0 -152 -8t-166 -11v-4zM500 428q69 221 141 352h-4q-118 -167 -172 -344q-24 -79 -35.5 -176.5t-11.5 -163.5h4q26 165 78 332z" />
    <glyph glyph-name="eight" unicode="8" horiz-adv-x="1298" 
d="M797 684q185 0 306.5 -99.5t121.5 -236.5q0 -78 -32.5 -142t-99.5 -115t-180 -79t-264 -28t-264 28t-179.5 79t-99 115t-32.5 142q0 137 121.5 236.5t306.5 99.5v6q-154 0 -255.5 87t-101.5 212q0 157 124 255.5t380 98.5t380 -98.5t124 -255.5q0 -125 -101 -212
t-255 -87v-6zM473 989q0 -139 51 -213t117 -74h16q66 0 117 74t51 213q0 75 -10.5 133t-27.5 93.5t-40.5 58t-47.5 31t-50 8.5q-27 -1 -50 -10t-47 -31.5t-41 -57.5t-27.5 -93t-10.5 -132zM418 801q-38 15 -68.5 75t-30.5 148q0 86 31 142.5t68 74.5l-4 4q-19 -7 -39 -22
t-42.5 -40.5t-37 -67t-14.5 -91.5q0 -96 43.5 -154.5t89.5 -72.5zM881 1241q37 -18 67.5 -74.5t30.5 -142.5q0 -88 -30 -148t-68 -75l4 -4q46 14 89.5 72.5t43.5 154.5q0 50 -14.5 91.5t-37 67t-42.5 40.5t-39 22zM649 14q47 0 88 15.5t78.5 50.5t59.5 103.5t22 164.5
q0 153 -75 238.5t-165 85.5h-16q-90 0 -165 -85.5t-75 -238.5q0 -96 22 -164.5t59.5 -103.5t78.5 -50.5t88 -15.5zM375 82q-48 26 -84.5 98.5t-36.5 157.5q0 87 36 158.5t85 97.5l-4 4q-26 -13 -51 -33t-51.5 -51t-43 -77t-16.5 -99q0 -68 30 -125.5t63 -86.5t69 -48z
M928 78q36 19 69 48t63 86.5t30 125.5q0 53 -16.5 99t-43 77t-51.5 51t-51 33l-4 -4q48 -26 84 -97.5t36 -158.5q0 -86 -36 -158t-84 -98z" />
    <glyph glyph-name="nine" unicode="9" horiz-adv-x="1187" 
d="M580 1343q126 0 228.5 -42t168 -115.5t100.5 -170t35 -208.5q0 -134 -40 -250.5t-105 -198.5t-151.5 -148.5t-175 -107.5t-179.5 -68.5t-162 -38.5t-125 -11v30q46 0 104 19t125 61t128.5 100.5t116.5 146.5t87 189q-82 -20 -172 -20q-136 0 -238 31t-161.5 87t-88 126
t-28.5 155q0 90 35 168.5t101 138t168.5 93.5t228.5 34zM602 543q77 0 141 22q31 112 31 242q0 506 -194 506q-195 0 -195 -383q0 -209 56 -298t161 -89zM555 119q36 21 65.5 39.5t75 55t80.5 74t74 95t64 119.5t42 145.5t17 175.5q0 125 -45 228.5t-111 165.5l-2 -3
q52 -61 82.5 -166t30.5 -225q0 -119 -27.5 -225.5t-67.5 -179.5t-94.5 -136.5t-98 -98.5t-87.5 -62zM340 629q-46 28 -76.5 110t-30.5 179q0 96 30.5 178t76.5 110l-4 4q-56 -31 -102 -107t-46 -185q0 -110 46 -186t102 -107z" />
    <glyph glyph-name="colon" unicode=":" horiz-adv-x="544" 
d="M117 659q0 70 43.5 110t111.5 40t112 -40t44 -110t-43.5 -108.5t-112.5 -38.5q-68 0 -111.5 38.5t-43.5 108.5zM117 131q0 70 43.5 110t111.5 40t112 -40t44 -110t-43.5 -108.5t-112.5 -38.5q-68 0 -111.5 38.5t-43.5 108.5z" />
    <glyph glyph-name="semicolon" unicode=";" horiz-adv-x="581" 
d="M285 512q-69 0 -112.5 38.5t-43.5 108.5t44 110t112 40t111.5 -40t43.5 -110t-43.5 -108.5t-111.5 -38.5zM266 281q91 0 151 -59.5t60 -194.5q0 -85 -22.5 -148t-52 -94.5t-70.5 -50.5t-66.5 -23t-50.5 -4v27q40 0 78 15.5t73.5 47.5t57.5 91.5t22 138.5q0 58 -16 104
l-8 -2q0 -68 -44 -106.5t-112 -38.5t-111.5 38.5t-43.5 108.5t43.5 110t111.5 40z" />
    <glyph glyph-name="less" unicode="&#x3c;" horiz-adv-x="739" 
d="M63 453l545 383l19 -25l-521 -367l521 -364l-19 -25l-545 383v15z" />
    <glyph glyph-name="equal" unicode="=" horiz-adv-x="989" 
d="M119 664h751v-31h-751v31zM119 319h751v-30h-751v30z" />
    <glyph glyph-name="greater" unicode="&#x3e;" horiz-adv-x="739" 
d="M676 438l-545 -383l-18 25l520 364l-520 367l18 25l545 -383v-15z" />
    <glyph glyph-name="question" unicode="?" horiz-adv-x="890" 
d="M412 1343q208 0 313.5 -85.5t105.5 -227.5q0 -68 -24 -125t-62 -98t-84.5 -78t-93 -73.5t-84.5 -74.5t-62 -90.5t-24 -113.5v-82h-37l-2 131q0 99 18 178.5t45 127.5t59 93.5t59 79.5t45 83.5t18 107.5q0 94 -60.5 155.5t-150.5 61.5q-124 0 -203 -47l5 -31h4
q70 0 113.5 -45t43.5 -103t-40.5 -103.5t-106.5 -45.5q-67 0 -107.5 43.5t-40.5 105.5v3q0 122 95.5 187.5t257.5 65.5zM473 653q17 40 51.5 78.5t70 69t69 65t54.5 81.5t21 104q0 117 -108 190l-4 -4q75 -63 75 -186q0 -48 -17.5 -90.5t-46 -78t-58.5 -68t-61.5 -74.5
t-49.5 -83zM395 221q55 0 90 -31t35 -88q0 -56 -35 -87t-90 -31t-90 31t-35 87q0 57 35 88t90 31z" />
    <glyph glyph-name="at" unicode="@" horiz-adv-x="1284" 
d="M725 1147q120 0 216.5 -40.5t157 -110t92.5 -160.5t32 -195q0 -22 -4 -72q-7 -69 -27.5 -129.5t-57 -114t-96.5 -85t-137 -31.5q-75 0 -115.5 36t-40.5 103q0 7 5 47l2 11h-15q-1 -13 -4.5 -28.5t-20 -48t-41.5 -57t-74.5 -44t-113.5 -19.5q-115 0 -174 82.5t-59 222.5
q0 179 100 299.5t246 120.5q56 0 95.5 -12.5t57.5 -34t25 -43t4 -45.5h6l35 123h209q-22 -218 -24 -242l-37 -342q-7 -72 45 -72q61 0 110 94.5t60 208.5q4 50 4 74q0 216 -129 344.5t-334 128.5q-165 0 -302.5 -73.5t-221.5 -213.5t-84 -319q0 -221 136 -354t357 -133
q64 0 121.5 7t94 16.5t64.5 19.5t40 17l12 7l10 -24q-4 -3 -12.5 -8t-40 -18t-68 -22.5t-97.5 -17.5t-128 -8q-127 0 -228.5 42t-165.5 114t-98 165t-34 199q0 99 28 192.5t83.5 173.5t132 140.5t180.5 94.5t223 34zM725 535l27 247q6 103 -80 103q-79 0 -117.5 -92.5
t-38.5 -315.5q0 -88 22 -133t72 -45q41 0 68.5 30t34.5 87zM395 502q0 92 28 187.5t60 129.5l-2 2q-42 -40 -79 -116t-37 -185q0 -100 26 -151t62 -66l2 2q-24 16 -42 66t-18 131zM893 567q16 141 16 254h-2q-29 -164 -39 -254q-10 -92 -16 -256h2q28 134 39 256z" />
    <glyph glyph-name="A" unicode="A" horiz-adv-x="1304" 
d="M1225 31l133 -15v-16h-572v16l121 15l-139 389h-520l-51 -146q-19 -59 -19 -106q0 -71 52 -111.5t141 -40.5v-16h-426v16l127 15l465 1296h229zM1026 139h4q-7 23 -46.5 154.5t-68 223.5t-51.5 157q-18 51 -47 126t-52.5 132t-59 142.5t-46.5 113.5h-4q127 -415 160 -514
q34 -100 211 -535zM260 451h496l-244 682h-8z" />
    <glyph glyph-name="B" unicode="B" horiz-adv-x="1282" 
d="M748 666q211 0 340 -89t129 -235q0 -162 -153 -252t-411 -90h-575v16l123 15v1265l-123 15v16h555q258 0 390 -90.5t132 -247.5q0 -144 -112 -231.5t-295 -87.5v-4zM633 1296h-125v-614h170q139 0 139 307t-184 307zM872 1200q39 -18 72 -74t33 -141q0 -88 -32.5 -148
t-72.5 -75l2 -2q20 6 43.5 21.5t48 42t40.5 69t16 92.5q0 49 -16.5 90t-42 66t-47.5 39t-42 22zM356 139q21 381 21 525q0 143 -21 524h-4q-20 -362 -20 -524t20 -525h4zM653 31q108 0 167 69.5t59 241.5q0 89 -14 151t-42 95.5t-63 48t-82 14.5h-170v-620h145zM924 131
q20 8 41.5 22t47.5 38.5t42 64t16 86.5q0 49 -16 89.5t-42 65t-47.5 38.5t-41.5 22l-2 -2q39 -18 71.5 -73.5t32.5 -139.5q0 -81 -32.5 -136t-71.5 -73z" />
    <glyph glyph-name="C" unicode="C" horiz-adv-x="1269" 
d="M1176 385h18l-14 -305q-6 -4 -17 -10.5t-48.5 -23t-79.5 -29t-108.5 -23t-135.5 -10.5q-181 0 -321 54t-225 149t-128 215.5t-43 261.5t43 261.5t128 215t225 148.5t321 54q68 0 135 -10t113 -24t82.5 -28t54.5 -24l18 -10v-315h-18l-17 53q-7 26 -21 59t-45.5 83
t-70 89.5t-100 68t-131.5 28.5t-125.5 -18.5t-104 -64.5t-80.5 -119t-50.5 -185.5t-18.5 -261.5q0 -185 27 -314.5t79.5 -201.5t118.5 -103t154 -31q51 0 97.5 16t80.5 38.5t65.5 57t50.5 62.5t37.5 65t25.5 53t15 38zM250 664q0 180 55 319.5t119 194.5l-2 2
q-34 -27 -67.5 -67.5t-69.5 -103t-58 -153t-22 -192.5t22 -192.5t58 -153t69.5 -103.5t67.5 -68l2 3q-64 55 -119 194.5t-55 319.5z" />
    <glyph glyph-name="D" unicode="D" horiz-adv-x="1425" 
d="M664 1327q145 0 261 -33.5t195 -92.5t131 -143t75.5 -181.5t23.5 -212.5t-25.5 -212.5t-82.5 -182t-144 -143.5t-215.5 -92.5t-290.5 -33.5h-514v16l123 15v1265l-123 15v16h586zM592 31q78 0 139 17t115.5 60.5t89.5 114t55.5 181.5t20.5 260t-17 260t-46 181.5
t-74 113.5t-95.5 60t-115.5 17h-156v-1265h84zM356 139q21 381 21 525q0 143 -21 524h-4q-20 -362 -20 -524t20 -525h4zM1001 147q34 27 67.5 67.5t69.5 103.5t58.5 153.5t22.5 192.5t-22.5 192.5t-58.5 153t-69.5 103t-67.5 67.5l-2 -2q64 -56 119.5 -195.5t55.5 -318.5
t-55.5 -318.5t-119.5 -195.5z" />
    <glyph glyph-name="E" unicode="E" horiz-adv-x="1251" 
d="M1161 387h19l-13 -387h-1089v16l123 15v1265l-123 15v16h1040l12 -387h-18l-4 33q-19 145 -107.5 234t-224.5 89h-268v-624h160q92 0 151.5 64.5t67.5 160.5l2 23h18v-523h-18l-2 23q-8 95 -67 158t-152 63h-160v-610h317q135 0 224 89.5t108 233.5zM358 139
q21 381 21 525q0 143 -21 524h-4q-20 -362 -20 -524t20 -525h4z" />
    <glyph glyph-name="F" unicode="F" horiz-adv-x="1173" 
d="M1118 1327l12 -387h-18l-4 33q-19 145 -107.5 234t-224.5 89h-268v-643h166q91 0 140.5 57t57.5 154l2 23h19v-498h-19l-2 23q-8 97 -57.5 154t-140.5 57h-166v-592l123 -15v-16h-553v16l123 15v1265l-123 15v16h1040zM356 139q21 381 21 525q0 143 -21 524h-4
q-20 -362 -20 -524t20 -525h4z" />
    <glyph glyph-name="G" unicode="G" horiz-adv-x="1335" 
d="M1311 502v-17l-117 -14v-371v-172h-18l-23 138q-54 -31 -146.5 -56.5t-215.5 -25.5q-181 0 -321 54t-225 149t-128 215.5t-43 261.5t43 261.5t128 215t225 148.5t321 54q68 0 135 -10t113 -24t82.5 -28t54.5 -24l18 -10v-317h-18q-35 178 -140.5 280.5t-244.5 102.5
q-70 0 -125.5 -18.5t-104 -64.5t-80.5 -119t-50.5 -185.5t-18.5 -261.5q0 -185 27 -314.5t79.5 -201.5t118.5 -103t154 -31q42 0 96 15v442l-119 12v19h543zM422 147l2 3q-64 55 -119 194.5t-55 319.5t55 319.5t119 194.5l-2 2q-34 -27 -67.5 -67.5t-69.5 -103t-58 -153
t-22 -192.5t22 -192.5t58 -153t69.5 -103.5t67.5 -68zM1040 434q-12 -105 -12 -158q0 -56 10 -149l6 4q11 72 11 145q0 82 -13 158h-2z" />
    <glyph glyph-name="H" unicode="H" horiz-adv-x="1529" 
d="M1452 1311l-123 -15v-1263l123 -17v-16h-553v16l123 17v618h-514v-618l123 -17v-16h-553v16l123 17v1263l-123 15v16h553v-16l-123 -15v-614h514v614l-123 15v16h553v-16zM356 139q21 381 21 525q0 143 -21 524h-4q-20 -362 -20 -524t20 -525h4zM1178 139q20 362 20 525
q0 161 -20 524h-4q-21 -381 -21 -524q0 -144 21 -525h4z" />
    <glyph glyph-name="I" unicode="I" horiz-adv-x="708" 
d="M631 1311l-123 -15v-1265l123 -15v-16h-553v16l123 15v1265l-123 15v16h553v-16zM356 139q21 381 21 525q0 143 -21 524h-4q-20 -362 -20 -524t20 -525h4z" />
    <glyph glyph-name="J" unicode="J" horiz-adv-x="843" 
d="M793 1327v-16l-123 -15v-907q0 -85 -20 -154.5t-64 -127.5t-123 -90.5t-189 -32.5q-112 0 -186 59.5t-74 140.5q0 51 35 87t86 36t86 -36t35 -87t-35 -86t-86 -35h-6v-10q54 -41 133 -41q100 0 100 107v1177l-122 15v16h553zM469 147q36 43 55 193.5t19 327.5
q0 150 -21 520h-4q-20 -352 -20 -520q0 -31 0.5 -92t0.5 -96t-0.5 -87t-2.5 -84.5t-5.5 -67.5t-9.5 -57t-14 -34z" />
    <glyph glyph-name="K" unicode="K" horiz-adv-x="1341" 
d="M1319 27l92 -11v-16h-428l-383 627h-92v-596l123 -15v-16h-553v16l123 15v1265l-123 15v16h553v-16l-123 -15v-639h82l377 424q47 53 47 107q0 123 -201 123v16h516v-16l-123 -15l-399 -442zM356 139q21 381 21 525q0 143 -21 524h-4q-20 -362 -20 -524t20 -525h4z
M1075 131l2 2q-123 227 -143 260q-29 44 -164 234h-2q3 -5 58 -109.5t81 -148.5q20 -33 49.5 -75t67.5 -93.5t51 -69.5z" />
    <glyph glyph-name="L" unicode="L" horiz-adv-x="1142" 
d="M1092 367h18l-12 -367h-1020v16l123 15v1265l-123 15v16h553v-16l-123 -15v-1265h248q137 0 229.5 87t104.5 226zM356 139q21 381 21 525q0 143 -21 524h-4q-20 -362 -20 -524t20 -525h4z" />
    <glyph glyph-name="M" unicode="M" horiz-adv-x="1697" 
d="M1620 1311l-123 -15v-1265l123 -15v-16h-553v16l123 15v1186h-4l-426 -1227h-39l-481 1222h-4v-1040q0 -57 41 -103t102 -46v-23h-322v23q61 0 102.5 46t41.5 103v1124l-123 15v16h461l340 -866h8l303 866h430v-16zM1352 139q20 362 20 525q0 161 -20 524h-4
q-21 -381 -21 -524q0 -144 21 -525h4zM561 756q35 -86 180 -387l4 2q-111 315 -145 399q-43 107 -182 385h-2q107 -309 145 -399z" />
    <glyph glyph-name="N" unicode="N" horiz-adv-x="1320" 
d="M1278 1327v-16q-58 0 -100.5 -41t-42.5 -105v-1181h-35l-858 1165h-4v-987q0 -64 42.5 -105t100.5 -41v-16h-322v16q55 0 98 41t46 105v1040l-68 103l-55 6v16h364l652 -844h4v682q0 64 -43 105t-101 41v16h322zM1022 330l2 2q-150 228 -305 438q-102 139 -332 420l-4 -2
q174 -261 305 -438q151 -201 334 -420z" />
    <glyph glyph-name="O" unicode="O" horiz-adv-x="1482" 
d="M741 1343q155 0 283 -54.5t211.5 -147.5t129.5 -216t46 -261t-45.5 -261t-129 -216.5t-212 -148t-283.5 -54.5t-283.5 54.5t-211.5 148t-128.5 216.5t-45.5 261t45.5 261t129 216t211.5 147.5t283 54.5zM741 14q58 0 106 18.5t91 65t72 119t46 186t17 261.5t-17 261.5
t-46.5 186t-72.5 118.5t-90.5 64.5t-105.5 18.5t-105.5 -18.5t-90.5 -64.5t-72 -118.5t-46 -186t-17 -261.5t17 -261.5t46 -186t71.5 -119t90.5 -65t106 -18.5zM422 147l2 3q-64 55 -119 194.5t-55 319.5t55 319.5t119 194.5l-2 2q-34 -27 -67.5 -67.5t-69.5 -103t-58 -153
t-22 -192.5t22 -192.5t58 -153t69.5 -103.5t67.5 -68zM1061 147q34 27 67.5 68t69.5 103.5t58 153t22 192.5t-22 192.5t-58 153t-69.5 103t-67.5 67.5l-2 -2q64 -55 119 -194.5t55 -319.5t-55 -319.5t-119 -194.5z" />
    <glyph glyph-name="P" unicode="P" horiz-adv-x="1218" 
d="M664 1327q138 0 241.5 -29.5t163.5 -82t88.5 -119t28.5 -146.5q0 -81 -28.5 -147.5t-88.5 -119t-163 -81.5t-242 -29h-156v-542l123 -15v-16h-553v16l123 15v1265l-123 15v16h586zM664 604q34 0 60.5 9.5t50 33t39.5 62t25 99.5t9 142t-9 142t-25 99.5t-39.5 62t-50 33
t-60.5 9.5h-156v-692h156zM903 698q23 13 46 32.5t47.5 50t39.5 75t15 94.5q0 96 -46.5 159t-101.5 93l-2 -2q42 -26 73.5 -96.5t31.5 -153.5t-31.5 -153.5t-73.5 -96.5zM356 139q21 381 21 525q0 143 -21 524h-4q-20 -362 -20 -524t20 -525h4z" />
    <glyph glyph-name="Q" unicode="Q" horiz-adv-x="1484" 
d="M1413 664q0 -167 -61.5 -307.5t-186 -238t-293.5 -124.5v-64q0 -108 75.5 -203t178.5 -104l52 -4v-18h-52q-249 0 -384.5 106t-135.5 264v25q-167 29 -290 127t-183.5 237.5t-60.5 303.5q0 138 45.5 261t129.5 216t213.5 147.5t287.5 54.5q155 0 282.5 -54.5
t210.5 -147.5t127.5 -215.5t44.5 -261.5zM410 664q0 -148 17 -261.5t46 -186.5t72.5 -119t92.5 -64.5t110 -18.5q58 0 105.5 18.5t89.5 64.5t70.5 119t45 186.5t16.5 261.5q0 184 -24.5 314t-70 201.5t-102 102.5t-130.5 31q-61 0 -110 -18.5t-92.5 -64.5t-72.5 -118.5
t-46 -186t-17 -261.5zM422 147l2 3q-64 55 -119 194.5t-55 319.5t55 319.5t119 194.5l-2 2q-34 -27 -67.5 -67.5t-69.5 -103t-58 -153t-22 -192.5t22 -192.5t58 -153t69.5 -103.5t67.5 -68zM1063 1180l-2 -2q64 -55 119 -194.5t55 -319.5t-55 -319.5t-119 -194.5l2 -3
q34 27 67.5 68t69.5 103.5t58 153t22 192.5t-22 192.5t-58 153t-69.5 103t-67.5 67.5z" />
    <glyph glyph-name="R" unicode="R" horiz-adv-x="1361" 
d="M1337 240h19v-39q0 -101 -65.5 -159t-194.5 -58q-114 0 -183 66t-69 175v197q0 86 -46.5 139t-131.5 53h-158v-583l123 -13v-18h-553v16l123 15v1265l-123 15v16h590q133 0 232.5 -27.5t157.5 -77t85.5 -112t27.5 -139.5q0 -149 -103 -243.5t-312 -94.5v-6q197 0 295 -81
t98 -224v-121q0 -127 80 -127q90 0 104 127zM508 645h160q30 0 53.5 9t45 31.5t36 58.5t23 93.5t8.5 133.5q0 182 -43.5 253.5t-122.5 71.5h-160v-651zM897 1202q38 -24 65 -89.5t27 -141.5q0 -78 -27 -144t-65 -88l2 -2q50 28 92.5 87t42.5 147t-42 146.5t-93 86.5z
M356 139q21 381 21 525q0 143 -21 524h-4q-20 -362 -20 -524t20 -525h4zM1049 147h2q-8 4 -14 10.5t-9.5 18.5t-6 21t-3 27t-0.5 27v31v29q0 55 -18 102t-54 60h-2q8 -4 14 -10.5t9.5 -18.5t6 -21t3 -27t0.5 -26.5v-30v-28.5q0 -57 18 -104t54 -60z" />
    <glyph glyph-name="S" unicode="S" horiz-adv-x="1083" 
d="M569 1343q97 0 188 -20.5t133 -40.5l42 -20l8 -310h-18l-9 43q-5 23 -12 45t-21 55t-31.5 61.5t-45 58t-59 50.5t-76 34.5t-95.5 13.5q-107 0 -164 -45.5t-57 -132.5q0 -49 22.5 -93t60.5 -79.5t87 -69.5t103.5 -67t109 -67t103.5 -74t87 -84t60.5 -101t22.5 -121
q0 -178 -134 -286.5t-346 -108.5q-100 0 -205.5 22t-160.5 44l-56 22l-16 313h19l14 -51q14 -40 31.5 -76t52.5 -83t77.5 -80.5t108 -57t142.5 -23.5q219 0 219 205q0 69 -36 127.5t-94 102t-128 85t-140 84.5t-128 90.5t-94 114t-36 144.5q0 85 29 152t75.5 108t110 68
t126 37.5t130.5 10.5zM578 696q-33 22 -83 53.5t-76.5 49t-62.5 44t-54 48t-37 51t-26.5 64t-7.5 75.5h-4q-6 -41 -4.5 -74.5t12 -63t27 -54.5t40 -48.5t51.5 -44.5t61.5 -43.5t69.5 -45.5q44 -28 67 -43q62 -42 96.5 -66.5t78.5 -60t66.5 -64t44 -66t28 -79t3.5 -90.5h4
q12 45 11.5 86t-9 74t-31 67.5t-46 60.5t-62.5 57.5t-72.5 55.5t-84.5 57z" />
    <glyph glyph-name="T" unicode="T" horiz-adv-x="1273" 
d="M1227 1327l12 -387h-18l-4 33q-19 145 -107.5 234t-224.5 89h-94v-1265l122 -15v-16h-553v16l123 15v1265h-94q-135 0 -224 -89.5t-108 -233.5l-4 -33h-18l12 387h1180zM639 139q20 363 20 525q0 161 -20 524h-4q-21 -381 -21 -524q0 -144 21 -525h4z" />
    <glyph glyph-name="U" unicode="U" horiz-adv-x="1333" 
d="M1309 1327v-16q-58 0 -101 -41t-43 -105v-698q0 -101 -25 -184t-66.5 -137.5t-97.5 -92t-115.5 -53.5t-123.5 -16q-571 0 -571 508v804l-121 15v16h551v-16l-123 -15v-952q0 -154 65.5 -242t198.5 -88q54 0 106.5 13.5t105 46.5t92 83t64.5 130t25 180v698
q0 64 -42.5 105t-100.5 41v16h322zM410 147l2 3q-26 31 -39.5 76t-22 151t-8.5 291q0 167 -20 520h-5q-20 -352 -20 -520q0 -136 8.5 -231t26.5 -150.5t34.5 -83.5t43.5 -56z" />
    <glyph glyph-name="V" unicode="V" horiz-adv-x="1296" 
d="M1352 1327v-16l-129 -15l-461 -1296h-221l-461 1296l-133 15v16h571v-16l-121 -13l391 -1103h9l295 831q24 66 24 133q0 69 -54 110.5t-142 41.5v16h432zM637 168l2 2q-100 347 -164 526q-27 81 -102.5 260.5t-100.5 249.5h-2q106 -361 166 -528q45 -129 201 -510z" />
    <glyph glyph-name="W" unicode="W" horiz-adv-x="1847" 
d="M-55 1311v16h123l10 -31zM1888 1327v-16l-133 -15l-395 -1296h-227l-181 662l-213 -662h-227l-444 1327h448v-16l-121 -15l371 -1103l170 530l-158 573l-131 15v16h572v-16l-123 -15l288 -1097l254 852q17 55 17 106q0 73 -52 113.5t-141 40.5v16h426zM621 147l2 3
q-88 323 -158 528q-25 84 -98.5 268t-94.5 242h-2q124 -424 162 -529q43 -142 189 -512zM1243 147l2 3q-92 417 -123 526q-21 84 -81.5 268.5t-77.5 243.5h-2q10 -43 36 -157.5t48.5 -207.5t41.5 -161q17 -67 156 -515z" />
    <glyph glyph-name="X" unicode="X" horiz-adv-x="1241" 
d="M1176 31l135 -15v-16h-574v16l113 15l-315 528l-236 -323q-45 -61 -45 -111q0 -40 32 -74.5t111 -34.5v-16h-436v16l139 15v-2l416 559l-424 708l-135 15v16h573v-16l-112 -15l305 -510l211 293q49 68 49 129q0 103 -135 103v16h428v-16l-139 -15l-396 -538zM928 145h4
q-23 42 -88 159.5t-119 214t-90 155.5q-55 89 -332 508h-4q143 -268 287 -508q93 -161 342 -529z" />
    <glyph glyph-name="Y" unicode="Y" horiz-adv-x="1232" 
d="M1253 1327v-16l-133 -15v2l-344 -727v-540l123 -15v-16h-553v16l123 15v540l-383 725l-135 15v16h575v-16l-114 -15l340 -667h16l184 391q41 90 41 178q0 46 -36 79.5t-101 33.5v16h397zM625 139q16 300 16 426q-18 51 -160.5 310t-177.5 313h-4q7 -16 79 -164.5
t139.5 -289.5t82.5 -175q0 -26 21 -420h4z" />
    <glyph glyph-name="Z" unicode="Z" horiz-adv-x="1165" 
d="M1094 387h18l-12 -387h-1032v20l688 1276h-301q-138 0 -238 -91t-119 -232l-4 -33h-18l12 387h999v-20l-679 -1276h329q137 0 235.5 90.5t117.5 232.5zM307 139q26 47 143.5 252.5t157.5 282.5q34 66 75 151.5t101 215t68 147.5h-4q-199 -345 -289 -514
q-130 -244 -256 -535h4z" />
    <glyph glyph-name="bracketleft" unicode="[" horiz-adv-x="684" 
d="M688 1479h-268v-1772h268v-31h-565v1833h565v-30zM274 -147q21 538 21 737t-21 737h-4q-20 -513 -20 -737t20 -737h4z" />
    <glyph glyph-name="backslash" unicode="\" horiz-adv-x="821" 
d="M770 0h-39l-680 1438h39z" />
    <glyph glyph-name="bracketright" unicode="]" horiz-adv-x="684" 
d="M561 1509v-1833h-565v31h268v1772h-268v30h565zM416 -147q20 512 20 737t-20 737h-4q-21 -538 -21 -737t21 -737h4z" />
    <glyph glyph-name="underscore" unicode="_" horiz-adv-x="929" 
d="M0 -70h930v-30h-930v30z" />
    <glyph glyph-name="grave" unicode="`" 
d="M301 942h-25l-276 260v19h219z" />
    <glyph glyph-name="a" unicode="a" horiz-adv-x="1249" 
d="M1176 35l131 -19v-16h-568v16l111 19l-131 321h-479l-39 -98q-19 -49 -19 -90q0 -63 47.5 -107.5t128.5 -44.5v-16h-407v16l125 19l434 1093h221zM961 139h4q-99 307 -150 434q-26 64 -55 131t-71 160.5t-56 124.5h-4q88 -272 145 -418q36 -92 187 -432zM252 387h455
l-224 547h-16z" />
    <glyph glyph-name="b" unicode="b" horiz-adv-x="1222" 
d="M709 565q203 0 327.5 -75t124.5 -199q0 -136 -147.5 -213.5t-395.5 -77.5h-544v16l116 15v1067l-116 14v16h524q251 0 377.5 -76.5t126.5 -209.5q0 -123 -108 -198t-285 -75v-4zM598 1098h-100v-514h143q123 0 123 258q0 256 -166 256zM850 999q35 -16 59.5 -61.5
t24.5 -106.5t-25.5 -106t-60.5 -61l2 -2q45 17 85 59.5t40 109.5q0 68 -39 110.5t-84 59.5zM346 139q19 228 19 426q0 196 -19 424h-4q-18 -216 -18 -424q0 -210 18 -426h4zM618 31q100 0 152.5 55.5t52.5 204.5q0 79 -13 132t-39 80.5t-56.5 38.5t-73.5 11h-143v-522h120z
M891 129q45 17 85 59.5t40 110.5t-39 110.5t-84 59.5l-2 -2q35 -16 59.5 -61.5t24.5 -106.5t-25.5 -106.5t-60.5 -61.5z" />
    <glyph glyph-name="c" unicode="c" horiz-adv-x="1210" 
d="M1118 344h19l-15 -276q-5 -3 -15.5 -8.5t-46.5 -20t-76 -25t-103 -19.5t-129 -9q-139 0 -253.5 31t-193.5 84.5t-133 127.5t-79 157.5t-25 176.5t25 177.5t79 158.5t133 128t193.5 85t253.5 31q100 0 192 -19.5t134 -39.5l42 -19l15 -291h-19l-14 41q-10 30 -25 61.5
t-46 76t-67.5 78t-92.5 57.5t-119 24q-65 0 -114.5 -13.5t-94.5 -50t-74 -97t-46 -158.5t-17 -230t17 -229t46 -157.5t74 -97t94.5 -50t114.5 -13.5q67 0 127.5 26.5t99.5 64t69.5 80.5t44.5 75t17 49zM248 571q0 149 43.5 258.5t109.5 163.5l-2 2q-78 -55 -135 -160
t-57 -264q0 -83 17.5 -155t47.5 -123t61 -86.5t66 -59.5l2 3q-66 54 -109.5 164t-43.5 257z" />
    <glyph glyph-name="d" unicode="d" horiz-adv-x="1357" 
d="M633 1128q139 0 250 -29t185.5 -79.5t124 -122.5t71.5 -155t22 -179q0 -120 -39 -219t-121.5 -177.5t-225 -122.5t-335.5 -44h-491v16l116 15v1067l-116 14v16h559zM565 31q72 0 126 12t104.5 46t82.5 92.5t51 154t19 227.5q0 133 -15.5 229.5t-42 155t-68 92.5t-85.5 46
t-104 12h-135v-1067h67zM946 147q35 25 66 59.5t61 86t48 123.5t18 155q0 84 -17.5 156.5t-48 123t-61.5 85t-66 59.5l-2 -2q66 -54 110 -164t44 -258q0 -147 -44 -257t-110 -164zM346 139q19 228 19 426q0 196 -19 424h-4q-18 -216 -18 -424q0 -210 18 -426h4z" />
    <glyph glyph-name="e" unicode="e" horiz-adv-x="1173" 
d="M1061 350h18l-12 -350h-995v16l116 15v1067l-116 14v16h970l13 -350h-19l-4 25q-23 132 -106.5 213.5t-212.5 81.5h-217v-533h106q164 0 205 201l2 10h18v-452h-18l-2 12q-13 90 -64.5 144.5t-140.5 54.5h-106v-504h239q133 0 221 82t103 219zM346 139q19 228 19 426
q0 196 -19 424h-4q-18 -216 -18 -424q0 -210 18 -426h4z" />
    <glyph glyph-name="f" unicode="f" horiz-adv-x="1120" 
d="M1065 1128l12 -350h-18l-4 25q-23 132 -106.5 213.5t-213.5 81.5h-237v-557h141q87 0 130 49.5t62 142.5l3 10h18v-436h-18l-3 12q-28 191 -192 191h-141v-479l116 -15v-16h-540v16l116 15v1067l-116 14v16h991zM346 139q19 228 19 426q0 196 -19 424h-4
q-18 -216 -18 -424q0 -210 18 -426h4z" />
    <glyph glyph-name="g" unicode="g" horiz-adv-x="1269" 
d="M1247 451v-17l-110 -14v-334v-154h-19l-22 121q-143 -67 -344 -67q-139 0 -253.5 31t-193.5 84.5t-133 127.5t-79 157.5t-25 176.5t25 177.5t79 158.5t133 128t193.5 85t253.5 31q103 0 195.5 -19.5t133.5 -39.5l41 -19l15 -293h-19l-14 43q-11 33 -27.5 67t-47 77
t-67.5 75.5t-92.5 55t-117.5 22.5q-65 0 -114.5 -13.5t-94.5 -50t-74 -97t-46 -158.5t-17 -230t17 -229t46 -157.5t74 -97t94.5 -50t114.5 -13.5q19 0 75 9v395l-112 14v17h532zM401 150q-66 54 -109.5 164t-43.5 257q0 149 43.5 258.5t109.5 163.5l-2 2q-78 -55 -135 -160
t-57 -264q0 -83 17.5 -155t47.5 -123t61 -86.5t66 -59.5zM985 354q-12 -81 -12 -118q0 -32 12 -119q0 1 1 2t1 2q12 54 12 115q0 64 -12 118h-2z" />
    <glyph glyph-name="h" unicode="h" horiz-adv-x="1458" 
d="M1384 1112l-116 -10v-1071l116 -15v-16h-540v16l117 15v522h-463v-522l116 -15v-16h-540v16l116 15v1071l-116 10v16h540v-16l-116 -10v-522h463v522l-117 10v16h540v-16zM346 139q19 228 19 426q0 196 -19 424h-4q-18 -216 -18 -424q0 -210 18 -426h4zM1116 139
q19 228 19 426q0 196 -19 424h-4q-18 -216 -18 -424q0 -210 18 -426h4z" />
    <glyph glyph-name="i" unicode="i" horiz-adv-x="688" 
d="M614 1112l-116 -14v-1067l116 -15v-16h-540v16l116 15v1067l-116 14v16h540v-16zM346 139q19 228 19 426q0 196 -19 424h-4q-18 -216 -18 -424q0 -210 18 -426h4z" />
    <glyph glyph-name="j" unicode="j" horiz-adv-x="821" 
d="M774 1128v-16l-117 -14v-756q0 -73 -18.5 -133.5t-60 -112t-117.5 -81t-182 -29.5q-115 0 -187 54t-74 126v2q0 47 32.5 83t80.5 36q50 0 84.5 -36t34.5 -83q0 -46 -34 -81t-83 -36q58 -35 131 -35q42 0 63 21t21 49v1012l-115 14v16h541zM453 147q35 42 54 167t19 251
q0 203 -18 424h-4q-19 -233 -19 -424v-50.5v-55.5v-53.5t-1 -56t-2.5 -51t-4 -49t-6 -40.5t-9 -35.5t-11.5 -23.5z" />
    <glyph glyph-name="k" unicode="k" horiz-adv-x="1292" 
d="M1274 27l90 -11v-16h-434l-344 516h-88v-485l116 -15v-16h-540v16l116 15v1067l-116 14v16h540v-16l-116 -14v-551h69l369 366q41 41 41 91q0 108 -186 108v16h495v-16l-117 -14l-376 -369zM346 139q19 228 19 426q0 196 -19 424h-4q-18 -216 -18 -424q0 -210 18 -426h4z
M1024 131v6q-7 13 -27 46.5t-34 57t-33 53t-33 48.5q-98 135 -141 188h-2q11 -19 36.5 -63t47.5 -81.5t39 -63.5q21 -30 75 -98t72 -93z" />
    <glyph glyph-name="l" unicode="l" horiz-adv-x="1093" 
d="M1040 330h19l-12 -330h-973v16l116 15v1067l-116 14v16h540v-16l-116 -14v-1067h217q134 0 219 75.5t104 208.5zM346 139q19 228 19 426q0 196 -19 424h-4q-18 -216 -18 -424q0 -210 18 -426h4z" />
    <glyph glyph-name="m" unicode="m" horiz-adv-x="1615" 
d="M1542 1112l-117 -14v-1067l117 -15v-16h-541v16l117 15v1003h-4l-399 -1042h-37l-451 1036h-4v-862q0 -51 42.5 -100.5t99.5 -49.5v-16h-318v16q57 0 99 49.5t42 100.5v932l-116 14v16h417l330 -753h6l293 753h424v-16zM1274 139q18 216 18 426q0 208 -18 424h-4
q-19 -228 -19 -424q0 -198 19 -426h4zM526 631q70 -156 172 -350h4q-70 196 -135 344q-63 145 -170 344h-4q81 -220 133 -338z" />
    <glyph glyph-name="n" unicode="n" horiz-adv-x="1277" 
d="M1221 1128v-16q-55 0 -88 -47.5t-33 -101.5v-977h-62l-811 972h-4v-792q0 -54 33 -102t88 -48v-16h-276v16q55 0 87.5 48t32.5 102v842l-69 98l-47 6v16h407l582 -706h4v541q0 54 -33 101.5t-88 47.5v16h277zM973 274h6q-202 280 -279 375q-104 129 -301 348h-6
q199 -275 277 -372q94 -119 303 -351z" />
    <glyph glyph-name="o" unicode="o" horiz-adv-x="1415" 
d="M713 1143q119 0 222 -31t178 -85.5t128.5 -127.5t80 -158.5t26.5 -177.5q0 -115 -42.5 -218.5t-121 -183.5t-201 -127.5t-270.5 -47.5q-151 0 -275 47.5t-203.5 127.5t-123 183.5t-43.5 218.5t43.5 219.5t123 185t203.5 128t275 47.5zM713 16q67 0 117 23t92 81t64 169
t22 274q0 132 -15 230t-40.5 158.5t-64.5 97t-80.5 50t-94.5 13.5q-56 0 -99.5 -13.5t-83.5 -50t-66.5 -97t-42 -158.5t-15.5 -230q0 -131 15.5 -229t42 -158t66.5 -96.5t83.5 -50t99.5 -13.5zM401 150q-66 54 -109.5 164t-43.5 257q0 149 43.5 258.5t109.5 163.5l-2 2
q-78 -55 -135 -160t-57 -264q0 -83 17.5 -155t47.5 -123t61 -86.5t66 -59.5zM1016 147q35 24 66 59.5t61 86.5t47.5 123t17.5 155q0 159 -57 264t-135 160l-2 -2q66 -54 109.5 -163.5t43.5 -258.5q0 -147 -43.5 -257t-109.5 -164z" />
    <glyph glyph-name="p" unicode="p" horiz-adv-x="1163" 
d="M629 1128q107 0 193.5 -19t143 -51t94 -76.5t54 -93t16.5 -102.5q0 -68 -27 -127t-83.5 -108t-156.5 -77t-234 -28h-131v-415l116 -15v-16h-540v16l116 15v1067l-116 14v16h555zM629 477q37 0 65 14t51 47.5t35.5 96t12.5 151.5q0 90 -12.5 153t-35.5 96.5t-51 48
t-65 14.5h-131v-621h131zM850 561q20 6 42.5 21.5t46 42t39 69t15.5 92.5q0 49 -15.5 90.5t-40.5 66.5t-46 39.5t-41 21.5l-2 -3q39 -18 71.5 -74t32.5 -141q0 -88 -32 -148t-72 -75zM346 139q19 228 19 426q0 196 -19 424h-4q-18 -216 -18 -424q0 -210 18 -426h4z" />
    <glyph glyph-name="q" unicode="q" horiz-adv-x="1415" 
d="M1348 563q0 -137 -57.5 -255.5t-175 -203.5t-277.5 -110v-70q0 -122 64.5 -184.5t170.5 -75.5l49 -6v-23h-49q-255 0 -378.5 79.5t-123.5 250.5v33q-158 26 -274 110.5t-172.5 202t-56.5 252.5q0 115 43.5 219.5t123 185t203.5 128t275 47.5q119 0 222 -31t178 -85.5
t128.5 -127.5t80 -158.5t26.5 -177.5zM406 563q0 -131 15.5 -229t42 -158t66.5 -96.5t83.5 -50t99.5 -13.5q67 0 117 23t92 81t64 169t22 274q0 132 -15 230t-40.5 158.5t-64.5 97t-80.5 50t-94.5 13.5q-56 0 -99.5 -13.5t-83.5 -50t-66.5 -97t-42 -158.5t-15.5 -230z
M401 150q-66 54 -109.5 164t-43.5 257q0 149 43.5 258.5t109.5 163.5l-2 2q-78 -55 -135 -160t-57 -264q0 -83 17.5 -155t47.5 -123t61 -86.5t66 -59.5zM1014 993q66 -54 109.5 -163.5t43.5 -258.5q0 -147 -43.5 -257t-109.5 -164l2 -3q35 24 66 59.5t61 86.5t47.5 123
t17.5 155q0 159 -57 264t-135 160z" />
    <glyph glyph-name="r" unicode="r" horiz-adv-x="1298" 
d="M1276 203h18v-23q0 -88 -64.5 -141t-189.5 -53q-112 0 -179.5 61t-67.5 160v162q0 67 -43.5 109t-118.5 42h-133v-489l116 -15v-16h-540v16l116 15v1067l-116 14v16h557q250 0 367.5 -84.5t117.5 -218.5q0 -126 -97 -206t-300 -80v-7q189 0 284 -71t95 -195v-86
q0 -106 76 -106q45 0 70 29.5t30 76.5zM498 551h133q35 0 59.5 11t45.5 39.5t31.5 84.5t10.5 139q0 84 -11 140t-32.5 84t-45.5 38.5t-58 10.5h-133v-547zM881 989q63 -29 63 -168q0 -138 -65 -168l2 -2q40 15 72 58t32 112t-31 112t-71 58zM346 139q19 228 19 426
q0 196 -19 424h-4q-18 -216 -18 -424q0 -210 18 -426h4zM993 117l2 2q-16 14 -24 38.5t-9 42.5t-1 56v51q0 39 -23.5 67.5t-50.5 37.5l-2 -2q35 -27 35 -84v-82q0 -90 73 -127z" />
    <glyph glyph-name="s" unicode="s" horiz-adv-x="1038" 
d="M553 1143q90 0 178.5 -17.5t120 -29.5t45.5 -19l8 -291h-18l-6 29q-9 31 -24 65.5t-43 77.5t-63 76t-86 55.5t-108 22.5q-205 0 -205 -135q0 -52 34 -98.5t88.5 -82.5t120.5 -72t132.5 -75t121 -82t88.5 -102.5t34 -128.5q0 -158 -127 -254t-328 -96q-96 0 -197.5 18.5
t-155.5 37.5l-54 19l-17 281h19l12 -41q15 -38 49 -84t83.5 -92.5t119 -77.5t141.5 -31q102 0 151.5 38.5t49.5 119.5q0 45 -21 84.5t-57 70.5t-82.5 59t-97.5 54.5t-102.5 53.5t-98 59t-82.5 67.5t-57 83t-21 101.5q0 78 28.5 139t73.5 97t106.5 59.5t121.5 32t125 8.5z
M553 588q-30 18 -84.5 50t-77 46.5t-57.5 42t-49 49.5t-25.5 55.5t-11.5 73.5h-4q-5 -26 -4.5 -49.5t4 -43t14 -38.5t20.5 -33.5t29 -31.5t34.5 -29.5t41.5 -29.5t45 -28.5t50.5 -31t53.5 -33.5q80 -49 124.5 -80.5t87.5 -74.5t59 -89t12 -104h4q10 35 10 68t-8.5 60.5
t-27.5 55.5t-41.5 51t-56.5 49t-66 47t-76 48z" />
    <glyph glyph-name="t" unicode="t" horiz-adv-x="1218" 
d="M1171 1128l13 -350h-19l-4 25q-23 132 -106.5 213.5t-214.5 81.5h-78v-1067l117 -15v-16h-541v16l117 15v1067h-78q-130 0 -213.5 -81.5t-106.5 -213.5l-4 -25h-18l12 350h1124zM610 139q19 228 19 426q0 196 -19 424h-4q-18 -216 -18 -424q0 -210 18 -426h4z" />
    <glyph glyph-name="u" unicode="u" horiz-adv-x="1269" 
d="M1231 1128v-16q-55 0 -88 -47.5t-33 -101.5v-566q0 -87 -23.5 -157.5t-62.5 -117t-92 -78t-109 -45t-116 -13.5q-125 0 -221.5 23.5t-157.5 63.5t-100 97t-54.5 118.5t-15.5 133.5v676l-115 14v16h539v-16l-117 -14v-828q0 -113 59.5 -183.5t182.5 -70.5q51 0 100 11.5
t98.5 40t86.5 70.5t60 109t23 150v566q0 54 -33 101.5t-88 47.5v16h277zM397 123l6 4q-29 40 -46.5 85t-23 99.5t-6 93.5t2 105t2.5 96q0 110 -17 418h-8q-16 -290 -16 -418q0 -7 -0.5 -60t0 -66t2.5 -60t6 -66t12 -58.5t19 -63t28 -54t39 -55.5z" />
    <glyph glyph-name="v" unicode="v" horiz-adv-x="1239" 
d="M1290 1128v-16l-125 -12l-432 -1100h-221l-432 1098l-129 14v16h559v-16l-113 -14l363 -905h16l268 681q17 44 17 91q0 61 -49 104t-129 43v16h407zM623 121h8q-102 300 -162 452q-83 207 -188 437h-9q112 -330 158 -449q53 -134 193 -440z" />
    <glyph glyph-name="w" unicode="w" horiz-adv-x="1759" 
d="M1800 1128v-16l-125 -10l-377 -1102h-225l-166 551l-194 -551h-228l-411 1100l-127 12v16h559v-16l-113 -14l348 -908h7l143 412l-148 496l-127 14v16h560v-16l-117 -14l268 -908h2l225 676q15 50 15 90q0 68 -41.5 112t-134.5 44v16h407zM596 121h8q-111 342 -153 452
q-72 189 -179 437h-8q12 -37 43 -136.5t55.5 -174t49.5 -138.5q35 -93 184 -440zM1188 121h8q-93 370 -119 452q-25 80 -151 437h-8q85 -339 120 -449q40 -128 150 -440z" />
    <glyph glyph-name="x" unicode="x" horiz-adv-x="1187" 
d="M1092 1098l-383 -461l387 -606l129 -15v-16h-559v16l104 13l-274 432l-217 -260q-52 -61 -52 -97q0 -33 30 -60.5t105 -27.5v-16h-401v16l137 15l383 452l-391 615l-129 14v16h559v-16l-104 -12l276 -436l217 264q1 1 12.5 16.5t15.5 21.5t12 18.5t11 22t3 17.5
q0 36 -31 62t-107 26v16h402v-16zM840 168l8 2q-113 208 -236 403q-93 148 -262 379l-8 -2q164 -284 236 -399q37 -59 78.5 -120t106.5 -153t77 -110z" />
    <glyph glyph-name="y" unicode="y" horiz-adv-x="1173" 
d="M1067 1102l-319 -621v-454l116 -11v-16h-540v16l116 11v462l-358 613l-129 10v16h563v-16l-110 -10l319 -561h20l179 354q34 70 34 123q0 39 -31 66.5t-93 27.5v16h360v-16zM594 139q22 338 22 344q-6 18 -35.5 70.5t-72 123t-80 130.5t-74.5 119t-39 63h-4
q11 -25 130 -255.5t134 -262.5q0 -40 19 -332z" />
    <glyph glyph-name="z" unicode="z" horiz-adv-x="1118" 
d="M1026 350h18l-12 -350h-954v18l627 1084h-275q-132 0 -221 -84.5t-100 -214.5l-3 -25h-18l12 350h936v-18l-620 -1083h286q130 0 214.5 82.5t105.5 214.5zM545 575q-27 -46 -59 -106.5t-53.5 -101.5t-59 -115t-49.5 -98h8q15 23 59.5 92.5t68.5 108t59.5 97.5t62.5 107
q45 83 217 418h-8q-16 -25 -59.5 -92.5t-68 -106.5t-59 -97t-59.5 -106z" />
    <glyph glyph-name="braceleft" unicode="{" horiz-adv-x="698" 
d="M485 924q0 -133 -83.5 -225.5t-217.5 -129.5v-4q134 -37 217.5 -126.5t83.5 -217.5v-325q0 -115 54.5 -171.5t154.5 -56.5v-30q-82 0 -152 13t-138 46t-116 85t-77 135.5t-29 191.5v307q0 73 -23 103.5t-65 33.5h-74v29h74q42 3 65 35.5t23 111.5v307q0 108 29 192
t77 136t115.5 85.5t138.5 46.5t152 13v-30q-100 0 -154.5 -57t-54.5 -173v-325zM315 1040q0 -15 0.5 -49t0 -51.5t-1 -46.5t-2.5 -46t-5.5 -36.5t-9.5 -31.5t-14 -19h2q36 23 53.5 103t17.5 177v48.5v51.5t0.5 45.5t3 46.5t6 36t9.5 32t14 19h-2q-36 -23 -54 -103.5
t-18 -175.5zM315 94q0 -95 18 -175t54 -103h2q-8 7 -14 19t-9.5 32t-6 35.5t-3 46t-0.5 45.5v51.5v48.5q0 97 -17.5 177.5t-53.5 103.5h-2q8 -7 14 -19t9.5 -31.5t5.5 -36.5t2.5 -46t1 -47t0 -52t-0.5 -49z" />
    <glyph glyph-name="bar" unicode="|" horiz-adv-x="280" 
d="M123 1509h35v-1833h-35v1833z" />
    <glyph glyph-name="braceright" unicode="}" horiz-adv-x="696" 
d="M2 -362q82 0 152 13t138 46t116 85t77 135.5t29 191.5v307q0 73 23 103.5t65 33.5h74v29h-74q-42 3 -65 35.5t-23 111.5v307q0 108 -29 192t-77 136t-115.5 85.5t-138.5 46.5t-152 13v-30q100 0 154.5 -57t54.5 -173v-325q0 -133 83.5 -225.5t217.5 -129.5v-4
q-134 -37 -217.5 -126.5t-83.5 -217.5v-325q0 -115 -54.5 -171.5t-154.5 -56.5v-30zM381 1040v-49v-52t0.5 -46t3 -46.5t6 -35.5t9.5 -32t14 -19h-2q-36 23 -54 103.5t-18 176.5v48.5v51.5t-0.5 45.5t-3 46.5t-6 36t-9.5 32t-14 19h2q36 -23 54 -103.5t18 -175.5zM381 94
q0 -95 -18 -175t-54 -103h-2q8 7 14 19t9.5 32t6 35.5t3 46t0.5 45.5v51.5v48.5q0 96 18 177t54 104h2q-8 -7 -14 -19t-9.5 -32t-6 -36t-3 -46.5t-0.5 -46v-52.5v-49z" />
    <glyph glyph-name="asciitilde" unicode="~" horiz-adv-x="974" 
d="M121 629q2 6 7 16.5t23.5 36.5t41 45.5t61 36t82.5 16.5q62 0 127.5 -26t128 -52t115.5 -26q25 0 48 8t38.5 19.5t27.5 23t17 19.5l6 8l16 -11q-2 -6 -7 -16t-23.5 -36t-40.5 -45.5t-61 -35.5t-83 -16q-66 0 -129 25t-121.5 50t-115.5 25q-26 0 -50.5 -7.5t-40.5 -18
t-28 -21.5t-18 -19l-5 -7z" />
    <glyph glyph-name="exclamdown" unicode="&#xa1;" horiz-adv-x="442" 
d="M96 1225q0 56 35 87t90 31t90 -31t35 -87q0 -57 -35 -88t-90 -31t-90 31t-35 88zM209 1032h24q0 -120 18.5 -255.5t41 -235t41 -216t18.5 -202.5q0 -62 -34 -100.5t-97 -38.5t-97 38.5t-34 100.5q0 86 18.5 202.5t41 216t41 235t18.5 255.5zM223 393h-2q-12 -74 -12 -162
q0 -87 12 -161h2q13 80 13 161q0 82 -13 162z" />
    <glyph glyph-name="cent" unicode="&#xa2;" horiz-adv-x="909" 
d="M844 508q0 -36 -16.5 -76.5t-50.5 -81.5t-99 -72t-150 -40v-238h-34v236h-27q-194 0 -295.5 116t-101.5 312q0 91 23 164.5t71 133t132 93t198 35.5v237h34v-237q136 -6 219.5 -80.5t83.5 -169.5q0 -46 -32.5 -80.5t-85.5 -34.5q-54 0 -86.5 33t-32.5 82q0 47 30 78
t81 34l8 49q-83 60 -205 60q-28 0 -48.5 -17t-38 -59t-26 -122t-8.5 -199q0 -184 40 -265.5t138 -81.5q70 0 122.5 20t79 51.5t38.5 61.5t12 58h27zM342 358q-42 32 -73 122.5t-31 193.5q0 105 31 195t73 122l-2 2q-55 -39 -101 -118t-46 -201q0 -120 46.5 -201t100.5 -117z
" />
    <glyph glyph-name="sterling" unicode="&#xa3;" horiz-adv-x="1107" 
d="M1010 395h30l-4 -43q-12 -101 -31 -157q-66 -203 -235 -213h-16q-85 0 -152 29t-135 79q-89 -109 -225 -106q-71 0 -117.5 42.5t-46.5 112.5q0 81 55 127.5t135 46.5q49 0 152 -18q-6 49 -31 98.5t-76 126t-71 109.5h-154v30h137q-73 139 -73 269q0 189 128 302t373 113
q86 0 165.5 -20.5t115.5 -40.5l37 -20l10 -320h-23l-8 43q-27 114 -54 170q-80 157 -243 158q-88 0 -139 -66t-51 -172q0 -50 8.5 -111t15.5 -96t26.5 -113t23.5 -96h272v-30h-264q24 -113 24 -189q0 -96 -18 -172q201 -41 280 -41q44 0 78.5 13t51 29t28 39t14 32.5
t3.5 19.5zM291 1001q0 -58 9 -112.5t27 -107.5t34 -91t42 -95t39 -87l4 4q-118 275 -118 489q0 65 20 135.5t55 100.5l-4 4q-40 -27 -74 -98t-34 -142zM737 88q44 0 79 11.5t49.5 22.5t33.5 30l-2 4q-58 -45 -158 -47q-63 -3 -168.5 36t-148.5 66l-2 -4q2 -1 16 -9.5
t25 -14.5t30.5 -16.5t37 -18.5t39.5 -18.5t43 -17.5t42.5 -13t43 -9t40.5 -2zM242 14q55 0 96 33t63 92q-91 66 -151 66q-45 0 -74 -25.5t-29 -66.5q0 -50 32 -74.5t63 -24.5z" />
    <glyph glyph-name="currency" unicode="&#xa4;" horiz-adv-x="1044" 
d="M961 664q0 -127 -49.5 -226t-149.5 -151l153 -269l-26 -14l-156 270q-87 -38 -211 -38q-120 0 -209 36l-155 -268l-27 14l154 269q-101 52 -151 150.5t-50 226.5q0 130 51 228.5t156 149.5l-160 277l27 14l159 -278q87 35 205 35q120 0 207 -35l160 278l26 -14l-159 -277
q104 -52 154.5 -150.5t50.5 -227.5zM522 264q42 0 67 31t39.5 120.5t14.5 248.5q0 120 -7.5 199t-24 122t-37.5 59.5t-52 16.5t-52 -16.5t-37.5 -59.5t-24 -122t-7.5 -199q0 -156 16.5 -247.5t41.5 -122t63 -30.5zM313 993q-41 -41 -75.5 -119.5t-34.5 -199.5
q0 -119 35 -199.5t75 -118.5v2q-27 32 -48 122.5t-21 193.5q0 105 20.5 195t48.5 122v2zM731 356q40 38 75.5 118.5t35.5 199.5q0 121 -35 199.5t-76 119.5v-2q28 -32 49 -122.5t21 -194.5q0 -103 -21 -193.5t-49 -122.5v-2z" />
    <glyph glyph-name="yen" unicode="&#xa5;" horiz-adv-x="1402" 
d="M1352 1327v-16l-133 -15v2l-345 -727v-122h232v-31h-232v-133h232v-31h-232v-223l123 -15v-16h-553v16l123 15v223h-231v31h231v133h-231v31h231v122l-383 725l-135 15v16h576v-16l-115 -15l340 -667h16l199 424q37 81 37 145q0 47 -33 80t-98 33v16h381zM725 139
q16 300 16 426q-18 51 -160.5 310t-177.5 313h-4q7 -16 79 -164.5t139.5 -289.5t82.5 -175q0 -26 21 -420h4z" />
    <glyph glyph-name="brokenbar" unicode="&#xa6;" horiz-adv-x="309" 
d="M172 1509v-733h-35v733h35zM172 410v-734h-35v734h35z" />
    <glyph glyph-name="section" unicode="&#xa7;" horiz-adv-x="1097" 
d="M899 92q113 -101 113 -225q0 -179 -131 -287t-342 -108q-100 0 -207 22t-164 44l-57 22l-17 313h19l12 -51q10 -38 26 -75.5t49.5 -83.5t76.5 -80t111.5 -57.5t150.5 -23.5q219 0 219 205q0 69 -36 127.5t-94 102t-128 85t-140 84.5t-128 90.5t-94 114t-36 144.5
q0 184 136 284q-136 116 -136 256q0 77 29 138t75.5 99.5t109.5 64t126.5 36t130.5 10.5q97 0 188 -20.5t133 -40.5l42 -20l8 -320h-18l-8 43q-7 29 -11.5 46t-18 55.5t-29 64.5t-42.5 59.5t-59 53.5t-78.5 34.5t-101.5 14.5q-107 0 -164.5 -45.5t-57.5 -132.5
q0 -49 22.5 -93t60.5 -79.5t87 -69.5t103.5 -67t109 -67t103.5 -74t87 -84t60.5 -101t22.5 -121q0 -183 -113 -287zM246 1083q-5 -48 -3.5 -84.5t18 -70t37 -59t53.5 -52t67.5 -50t78.5 -51.5q16 -10 24.5 -15.5t22 -14t25.5 -16.5q54 -36 84 -57t70.5 -52t62 -54t46 -54.5
t35.5 -61.5t17 -67.5t3 -79.5h4q12 45 11.5 86t-9.5 74t-31 67.5t-45.5 60.5t-63 58t-73 55t-84.5 57q-34 22 -83 53t-76 48.5t-62.5 43.5t-54 47.5t-37 50.5t-26 63t-7.5 75h-4zM797 231q0 52 -22 99t-53.5 81.5t-84.5 73t-97 64t-109.5 63t-104.5 62.5q-11 -33 -11 -64
q0 -51 22 -97t55 -80.5t86 -72t98.5 -63t110 -62.5t104.5 -63q6 27 6 59zM874 -301q12 45 11.5 86t-9.5 74.5t-31 67.5t-45.5 60.5t-62.5 58t-72.5 55.5t-84.5 57q-36 24 -95.5 61.5t-87 55.5t-66 50t-55.5 59t-30 67t-13 88h-4q-15 -89 20 -158.5t80 -105t153 -104.5
q46 -30 71 -46q62 -42 96.5 -66.5t78.5 -60t66.5 -64t44 -66t28 -79t3.5 -90.5h4z" />
    <glyph glyph-name="dieresis" unicode="&#xa8;" 
d="M61 1034q0 49 30.5 77t78.5 28t78.5 -28t30.5 -77t-30.5 -75.5t-78.5 -26.5t-78.5 26.5t-30.5 75.5zM410 1034q0 49 30.5 77t77.5 28q48 0 78.5 -28t30.5 -77t-30.5 -75.5t-78.5 -26.5t-78 26.5t-30 75.5z" />
    <glyph glyph-name="copyright" unicode="&#xa9;" horiz-adv-x="1507" 
d="M754 1343q158 0 287.5 -54.5t213.5 -147.5t129.5 -216t45.5 -261t-45.5 -261t-129.5 -216.5t-213.5 -148t-287.5 -54.5t-287.5 54.5t-213.5 148t-129.5 216.5t-45.5 261t45.5 261t129.5 216t213.5 147.5t287.5 54.5zM754 14q281 0 460 178.5t179 471.5t-179 471t-460 178
t-460 -178t-179 -471t179 -471.5t460 -178.5zM852 334q70 0 122.5 20t79 51t38.5 61t12 58h26q0 -40 -19 -83.5t-59.5 -87.5t-118 -72.5t-179.5 -28.5q-194 0 -296 116.5t-102 311.5q0 93 23.5 167.5t74 134t137 92t204.5 32.5q145 0 235 -76.5t90 -175.5q0 -57 -40.5 -100
t-106.5 -43q-67 0 -107.5 40.5t-40.5 102.5q0 61 40 101t108 40q14 0 22 -2l4 25q-81 59 -204 59q-28 0 -48.5 -17t-38 -59t-26 -122t-8.5 -199q0 -184 40 -265t138 -81zM635 358q-43 34 -75 127t-32 203q0 108 32 201t75 127l-2 4q-24 -17 -47.5 -42.5t-48.5 -65.5
t-40.5 -98.5t-15.5 -125.5t15.5 -125.5t40.5 -99t48.5 -66.5t47.5 -43z" />
    <glyph glyph-name="ordfeminine" unicode="&#xaa;" horiz-adv-x="940" 
d="M850 829h31v-34q0 -39 -7.5 -69t-27 -58t-60 -43t-100.5 -15q-76 0 -110.5 46.5t-34.5 140.5v10h-17q0 -30 -10.5 -61t-34 -63t-73 -52.5t-117.5 -20.5q-99 0 -157 49.5t-58 133.5q0 206 403 206h29v207q0 49 -27.5 79t-75.5 30q-96 0 -167 -43q0 -3 -1.5 -7.5t-1.5 -7.5
h11q51 0 86 -29.5t35 -72.5t-35.5 -75.5t-85.5 -32.5t-82.5 32t-32.5 76q0 77 75.5 132.5t198.5 55.5q184 0 270.5 -71t86.5 -185v-327q0 -72 41 -72q25 0 37 32.5t12 74.5v34zM672 698h4q-9 8 -14.5 28t-7 57t-2 62.5t0 76.5t0.5 67q0 93 -12 140t-35 85l-4 -2
q9 -30 14 -65t5.5 -53t0 -58.5t-0.5 -46.5q0 -259 51 -291zM412 700q47 0 70.5 49.5t23.5 120.5v95h-27q-71 0 -112 -41t-41 -99q0 -57 21.5 -91t64.5 -34zM262 688l4 4q-21 9 -40 39.5t-19 73.5q0 78 57 108l-2 2q-18 -6 -35 -15.5t-35 -35t-18 -59.5q0 -35 18 -62
t35.5 -38.5t34.5 -16.5z" />
    <glyph glyph-name="uni00AD" unicode="&#xad;" horiz-adv-x="839" 
d="M102 547h635v-31h-635v31z" />
    <glyph glyph-name="registered" unicode="&#xae;" horiz-adv-x="892" 
d="M446 1343q172 0 271.5 -108t99.5 -266q0 -159 -99.5 -267t-271.5 -108t-271 108t-99 267q0 158 99 266t271 108zM446 623q149 0 242.5 96.5t93.5 249.5q0 152 -93.5 248t-242.5 96t-242 -96t-93 -248q0 -153 93 -249.5t242 -96.5zM678 825h20v-14q0 -76 -98 -76
q-43 0 -66.5 23t-23.5 61v70q0 61 -64 61h-55v-186l43 -4v-19h-203v19l43 4v420l-43 4v18h228q90 0 133 -35t43 -90q0 -53 -36.5 -85.5t-109.5 -32.5v-2q68 0 103 -29t35 -78v-43q0 -33 26 -33q12 0 18.5 9.5t6.5 23.5v14zM391 971h58q28 0 42.5 23t14.5 87q0 105 -57 105
h-58v-215z" />
    <glyph glyph-name="macron" unicode="&#xaf;" 
d="M59 1022h533v-31h-533v31z" />
    <glyph glyph-name="degree" unicode="&#xb0;" horiz-adv-x="794" 
d="M397 741q-152 0 -240.5 95.5t-88.5 234.5q0 137 88.5 233.5t240.5 96.5t241 -96.5t89 -233.5q0 -138 -89 -234t-241 -96zM397 772q131 0 213 82t82 217t-81.5 216t-213.5 81t-213.5 -81t-81.5 -216t82 -217t213 -82z" />
    <glyph glyph-name="plusminus" unicode="&#xb1;" horiz-adv-x="1017" 
d="M526 678h359v-31h-359v-350h-34v350h-359v31h359v342h34v-342zM133 168v31h752v-31h-752z" />
    <glyph glyph-name="acute" unicode="&#xb4;" 
d="M102 942l82 279h219v-19l-276 -260h-25z" />
    <glyph glyph-name="paragraph" unicode="&#xb6;" horiz-adv-x="1282" 
d="M59 950q0 80 26.5 146.5t81 119t147 82t216.5 29.5h218v-1327h-312v16l123 15v542h-29q-241 0 -356 104t-115 273zM1204 1311l-123 -15v-1265l123 -15v-16h-311v1327h311v-16zM561 598v705q-196 0 -284.5 -89.5t-88.5 -259.5q0 -356 373 -356z" />
    <glyph glyph-name="periodcentered" unicode="&#xb7;" horiz-adv-x="516" 
d="M102 711q0 70 44 109.5t112 39.5t112 -39.5t44 -109.5t-44 -109t-112 -39t-112 39t-44 109z" />
    <glyph glyph-name="cedilla" unicode="&#xb8;" 
d="M236 -90q113 -4 171 -45.5t58 -102.5q0 -60 -52 -99.5t-153 -39.5q-56 0 -102.5 14.5t-65.5 28.5l-18 15l-13 88h13q2 -5 5.5 -13t17.5 -28t30.5 -35.5t43.5 -28t58 -12.5q37 0 61.5 25.5t24.5 84.5q0 71 -33.5 95t-99.5 24l72 119l35 -2q-37 -59 -53 -88z" />
    <glyph glyph-name="ordmasculine" unicode="&#xba;" horiz-adv-x="868" 
d="M434 1343q168 0 267.5 -106.5t99.5 -259.5t-99.5 -260t-267.5 -107t-267 107t-99 260t99 259.5t267 106.5zM434 639q139 0 139 338t-139 338t-139 -338t139 -338zM264 700q-27 20 -48 93.5t-21 181.5q0 105 21.5 173.5t47.5 94.5l-4 4q-19 -14 -38 -39.5t-39.5 -89
t-20.5 -143.5q0 -117 33 -189t65 -90zM608 696q32 18 65.5 90t33.5 189q0 62 -11 113t-28.5 82.5t-32 49t-27.5 27.5l-4 -4q26 -26 48 -94.5t22 -173.5q0 -108 -21.5 -181.5t-48.5 -93.5z" />
    <glyph glyph-name="onequarter" unicode="&#xbc;" horiz-adv-x="1490" 
d="M1028 1343h39l-549 -1343h-39zM590 649v-20h-506v20l147 8v590l-155 -45v29l342 102h24v-676zM338 737q2 35 6 79.5t6 78.5t2 74q0 35 -2 67t-6 75t-6 79h-4q-2 -31 -8.5 -103t-6.5 -118q0 -40 2.5 -74.5t6.5 -78t6 -79.5h4zM1434 170h-123v-141l110 -9v-20h-444v20
l123 9v141h-309v27l485 505h35v-505h123v-27zM1210 94q2 29 8.5 100.5t6.5 122.5q0 44 -6.5 111.5t-8.5 101.5h-4q-2 -37 -6 -78t-6 -71t-2 -64q0 -39 2 -71t6 -74t6 -78h4zM831 197h269v276z" />
    <glyph glyph-name="onehalf" unicode="&#xbd;" horiz-adv-x="1540" 
d="M1020 1343h39l-549 -1343h-39zM582 649v-20h-506v20l147 8v594l-155 -45v23l342 102h24v-674zM330 741q2 38 6 80.5t6 76t2 75.5q0 38 -2 68.5t-6 72t-6 80.5h-4q-2 -38 -8.5 -105t-6.5 -116q0 -55 6.5 -127.5t8.5 -104.5h4zM1450 238h27l-15 -238h-575v76q7 4 20 11
t49 30.5t69 49.5t73.5 66.5t69.5 82t49 96t20 108.5q0 76 -33.5 122t-105.5 46q-58 0 -115 -33l2 -4h12q39 0 63.5 -27t24.5 -61q0 -35 -24.5 -62.5t-63.5 -27.5q-40 0 -64 26t-24 64q0 68 58 111t157 43q169 0 255.5 -54.5t86.5 -144.5q0 -50 -23.5 -97.5t-61.5 -84
t-83.5 -68.5t-91 -54.5t-83.5 -38.5t-61 -24l-24 -8h308q92 0 102 80zM1276 647q26 -16 43.5 -56t17.5 -89t-17.5 -89.5t-43.5 -56.5l4 -4q34 19 62 56t28 94q0 100 -90 149zM1382 61v5q-98 10 -196 10q-72 0 -195 -10v-5q78 -8 195 -8q98 0 196 8z" />
    <glyph glyph-name="threequarters" unicode="&#xbe;" horiz-adv-x="1513" 
d="M657 803q0 -85 -82.5 -139t-250.5 -54q-110 0 -179 47.5t-69 110.5q0 38 24 64t64 26q39 0 64.5 -28t25.5 -62t-25.5 -61t-64.5 -27h-4l-2 -6q53 -35 129 -35q30 0 55 7.5t48 24.5t36.5 50.5t13.5 81.5q0 88 -45 132t-104 44h-15v22h15q49 0 87 37.5t38 112.5
q0 90 -37.5 127t-91.5 37q-72 0 -125 -37v-4h2q39 0 64.5 -27t25.5 -61t-25.5 -62t-64.5 -28q-40 0 -64 26t-24 64q0 63 69 110t179 47q155 0 232 -54t77 -138q0 -66 -70 -112t-176 -46v-4q116 0 193 -55.5t77 -130.5zM1051 1343h39l-549 -1343h-39zM453 1296l-4 -4
q21 -11 40 -44.5t19 -82.5t-17.5 -80.5t-39.5 -42.5l2 -4q18 7 35 18.5t35 41t18 67.5q0 55 -29 87t-59 44zM473 655q34 19 62 56t28 94q0 100 -90 149l-4 -4q26 -16 43.5 -56t17.5 -89t-17.5 -89.5t-43.5 -56.5zM1454 170h-123v-141l111 -9v-20h-445v20l123 9v141h-309v27
l485 505h35v-505h123v-27zM1233 94q2 36 6 78t6 74t2 71q0 34 -2 64t-6 71t-6 78h-4q-2 -34 -8.5 -101.5t-6.5 -111.5q0 -39 2.5 -71.5t6.5 -73.5t6 -78h4zM852 197h268v276z" />
    <glyph glyph-name="questiondown" unicode="&#xbf;" horiz-adv-x="888" 
d="M496 1106q-55 0 -90 31t-35 88q0 56 35 87t90 31t90 -31t35 -87q0 -57 -35 -88t-90 -31zM831 240v-2q0 -122 -95 -188t-257 -66q-208 0 -314 85.5t-106 227.5q0 68 24 125t62.5 98t84.5 78t92.5 73.5t85 74.5t62.5 90.5t24 113.5v82h36v-131q0 -117 -25 -206t-60 -142
t-70.5 -98t-60.5 -100.5t-25 -123.5q0 -94 60.5 -155.5t150.5 -61.5q123 0 202 47l-4 31h-4q-70 0 -113.5 45t-43.5 103t40.5 103.5t106.5 45.5q67 0 107 -43.5t40 -105.5zM260 86l4 4q-76 64 -76 186q0 58 28 112t63.5 90.5t78.5 89.5t64 102l-4 4q-17 -40 -51.5 -78.5
t-70 -69t-69 -65t-54.5 -81.5t-21 -104q0 -117 108 -190z" />
    <glyph glyph-name="Agrave" unicode="&#xc0;" horiz-adv-x="1304" 
d="M774 1401h-45l-317 239v19h239zM1225 31l133 -15v-16h-572v16l121 15l-139 389h-520l-51 -146q-19 -59 -19 -106q0 -71 52 -111.5t141 -40.5v-16h-426v16l127 15l465 1296h229zM1026 139h4q-7 23 -46.5 154.5t-68 223.5t-51.5 157q-18 51 -47 126t-52.5 132t-59 142.5
t-46.5 113.5h-4q127 -415 160 -514q34 -100 211 -535zM260 451h496l-244 682h-8z" />
    <glyph glyph-name="Aacute" unicode="&#xc1;" horiz-adv-x="1304" 
d="M889 1640l-318 -239h-45l123 258h240v-19zM1225 31l133 -15v-16h-572v16l121 15l-139 389h-520l-51 -146q-19 -59 -19 -106q0 -71 52 -111.5t141 -40.5v-16h-426v16l127 15l465 1296h229zM1026 139h4q-7 23 -46.5 154.5t-68 223.5t-51.5 157q-18 51 -47 126t-52.5 132
t-59 142.5t-46.5 113.5h-4q127 -415 160 -514q34 -100 211 -535zM260 451h496l-244 682h-8z" />
    <glyph glyph-name="Acircumflex" unicode="&#xc2;" horiz-adv-x="1304" 
d="M649 1556l-250 -157h-24l184 278h178l185 -278h-25zM1225 31l133 -15v-16h-572v16l121 15l-139 389h-520l-51 -146q-19 -59 -19 -106q0 -71 52 -111.5t141 -40.5v-16h-426v16l127 15l465 1296h229zM1026 139h4q-7 23 -46.5 154.5t-68 223.5t-51.5 157q-18 51 -47 126
t-52.5 132t-59 142.5t-46.5 113.5h-4q127 -415 160 -514q34 -100 211 -535zM260 451h496l-244 682h-8z" />
    <glyph glyph-name="Atilde" unicode="&#xc3;" horiz-adv-x="1304" 
d="M487 1516q-34 0 -61.5 -16t-37.5 -32l-11 -16l-17 8q2 7 6.5 19.5t21 44t36 55.5t52 43.5t69.5 19.5q36 0 74.5 -19.5t66.5 -42.5t63 -42.5t64 -19.5q31 0 58 17t38 33l11 17l16 -10q-2 -7 -6.5 -19.5t-20.5 -43.5t-35 -54.5t-52 -43t-70 -19.5q-39 0 -77 19t-63.5 41.5
t-59 41.5t-65.5 19zM1225 31l133 -15v-16h-572v16l121 15l-139 389h-520l-51 -146q-19 -59 -19 -106q0 -71 52 -111.5t141 -40.5v-16h-426v16l127 15l465 1296h229zM1026 139h4q-7 23 -46.5 154.5t-68 223.5t-51.5 157q-18 51 -47 126t-52.5 132t-59 142.5t-46.5 113.5h-4
q127 -415 160 -514q34 -100 211 -535zM260 451h496l-244 682h-8z" />
    <glyph glyph-name="Adieresis" unicode="&#xc4;" horiz-adv-x="1304" 
d="M475 1411q-48 0 -78 26.5t-30 75.5t30.5 77t77.5 28q48 0 78.5 -28t30.5 -77t-30.5 -75.5t-78.5 -26.5zM823 1411q-48 0 -78 26.5t-30 75.5t30.5 77t77.5 28q48 0 78.5 -28t30.5 -77t-30.5 -75.5t-78.5 -26.5zM1225 31l133 -15v-16h-572v16l121 15l-139 389h-520
l-51 -146q-19 -59 -19 -106q0 -71 52 -111.5t141 -40.5v-16h-426v16l127 15l465 1296h229zM1026 139h4q-7 23 -46.5 154.5t-68 223.5t-51.5 157q-18 51 -47 126t-52.5 132t-59 142.5t-46.5 113.5h-4q127 -415 160 -514q34 -100 211 -535zM260 451h496l-244 682h-8z" />
    <glyph glyph-name="Aring" unicode="&#xc5;" horiz-adv-x="1304" 
d="M649 1427q-103 0 -159 51.5t-56 139.5q0 86 56 137t159 51t159 -51t56 -137q0 -88 -56 -139.5t-159 -51.5zM649 1778q-76 0 -76 -160q0 -162 76 -162q37 0 56.5 44t19.5 118t-19.5 117t-56.5 43zM1225 31l133 -15v-16h-572v16l121 15l-139 389h-520l-51 -146
q-19 -59 -19 -106q0 -71 52 -111.5t141 -40.5v-16h-426v16l127 15l465 1296h229zM1026 139h4q-7 23 -46.5 154.5t-68 223.5t-51.5 157q-18 51 -47 126t-52.5 132t-59 142.5t-46.5 113.5h-4q127 -415 160 -514q34 -100 211 -535zM260 451h496l-244 682h-8z" />
    <glyph glyph-name="AE" unicode="&#xc6;" horiz-adv-x="1904" 
d="M1815 387h18l-12 -387h-1090v16l123 15v389h-496l-90 -146q-45 -73 -55 -106q-26 -71 10 -108t125 -37l-2 -23h-403v23l135 8l776 1253v12l-123 15v16h1041l12 -387h-19l-4 33q-19 145 -107.5 234t-223.5 89h-269v-624h160q92 0 151.5 64.5t67.5 160.5l2 23h19v-523h-19
l-2 23q-8 95 -67 158t-152 63h-160v-610h318q135 0 223.5 89.5t107.5 233.5zM377 451h477v774zM1012 139q20 363 20 525q0 161 -20 524h-4q-21 -381 -21 -524q0 -144 21 -525h4z" />
    <glyph glyph-name="Ccedilla" unicode="&#xc7;" horiz-adv-x="1269" 
d="M791 1313q-70 0 -125.5 -18.5t-104 -64.5t-80.5 -119t-50.5 -185.5t-18.5 -261.5q0 -185 27 -314.5t79.5 -201.5t118.5 -103t154 -31q51 0 97.5 16t80.5 38.5t65.5 57t50.5 62.5t37.5 65t25.5 53t15 38l13 41h18l-14 -305q-6 -4 -16.5 -10.5t-48 -23t-79 -29t-107 -23
t-134.5 -10.5l-41 -68q113 -4 171 -45t58 -102q0 -60 -52 -100t-153 -40q-56 0 -102.5 14.5t-65.5 28.5l-18 15l-12 88h12q2 -5 6 -13t18 -28t30 -35.5t43.5 -28t58.5 -12.5q37 0 61.5 26t24.5 85q0 71 -33.5 94.5t-100.5 23.5q3 3 13.5 20.5t24.5 40.5t22 36
q-140 4 -254.5 42t-193.5 100.5t-133.5 147.5t-79.5 183t-25 207q0 141 43 261.5t128 215t225 148.5t321 54q68 0 135 -10t113 -24t82.5 -28t54.5 -24l18 -10v-315h-18l-17 53q-7 26 -21 59t-45.5 83t-70 89.5t-100 68t-131.5 28.5zM250 664q0 180 55 319.5t119 194.5l-2 2
q-34 -27 -67.5 -67.5t-69.5 -103t-58 -153t-22 -192.5t22 -192.5t58 -153t69.5 -103.5t67.5 -68l2 3q-64 55 -119 194.5t-55 319.5z" />
    <glyph glyph-name="Egrave" unicode="&#xc8;" horiz-adv-x="1251" 
d="M827 1401h-45l-317 239v19h240zM1161 387h19l-13 -387h-1089v16l123 15v1265l-123 15v16h1040l12 -387h-18l-4 33q-19 145 -107.5 234t-224.5 89h-268v-624h160q92 0 151.5 64.5t67.5 160.5l2 23h18v-523h-18l-2 23q-8 95 -67 158t-152 63h-160v-610h317q135 0 224 89.5
t108 233.5zM358 139q21 381 21 525q0 143 -21 524h-4q-20 -362 -20 -524t20 -525h4z" />
    <glyph glyph-name="Eacute" unicode="&#xc9;" horiz-adv-x="1251" 
d="M895 1640l-317 -239h-46l123 258h240v-19zM1161 387h19l-13 -387h-1089v16l123 15v1265l-123 15v16h1040l12 -387h-18l-4 33q-19 145 -107.5 234t-224.5 89h-268v-624h160q92 0 151.5 64.5t67.5 160.5l2 23h18v-523h-18l-2 23q-8 95 -67 158t-152 63h-160v-610h317
q135 0 224 89.5t108 233.5zM358 139q21 381 21 525q0 143 -21 524h-4q-20 -362 -20 -524t20 -525h4z" />
    <glyph glyph-name="Ecircumflex" unicode="&#xca;" horiz-adv-x="1251" 
d="M657 1556l-249 -157h-25l184 278h178l185 -278h-25zM1161 387h19l-13 -387h-1089v16l123 15v1265l-123 15v16h1040l12 -387h-18l-4 33q-19 145 -107.5 234t-224.5 89h-268v-624h160q92 0 151.5 64.5t67.5 160.5l2 23h18v-523h-18l-2 23q-8 95 -67 158t-152 63h-160v-610
h317q135 0 224 89.5t108 233.5zM358 139q21 381 21 525q0 143 -21 524h-4q-20 -362 -20 -524t20 -525h4z" />
    <glyph glyph-name="Edieresis" unicode="&#xcb;" horiz-adv-x="1251" 
d="M483 1411q-48 0 -78 26.5t-30 75.5t30.5 77t77.5 28q48 0 78.5 -28t30.5 -77t-30.5 -75.5t-78.5 -26.5zM831 1411q-48 0 -78 26.5t-30 75.5t30.5 77t77.5 28q48 0 78.5 -28t30.5 -77t-30.5 -75.5t-78.5 -26.5zM1161 387h19l-13 -387h-1089v16l123 15v1265l-123 15v16
h1040l12 -387h-18l-4 33q-19 145 -107.5 234t-224.5 89h-268v-624h160q92 0 151.5 64.5t67.5 160.5l2 23h18v-523h-18l-2 23q-8 95 -67 158t-152 63h-160v-610h317q135 0 224 89.5t108 233.5zM358 139q21 381 21 525q0 143 -21 524h-4q-20 -362 -20 -524t20 -525h4z" />
    <glyph glyph-name="Igrave" unicode="&#xcc;" horiz-adv-x="708" 
d="M479 1401h-45l-317 239v19h239zM631 1311l-123 -15v-1265l123 -15v-16h-553v16l123 15v1265l-123 15v16h553v-16zM356 139q21 381 21 525q0 143 -21 524h-4q-20 -362 -20 -524t20 -525h4z" />
    <glyph glyph-name="Iacute" unicode="&#xcd;" horiz-adv-x="708" 
d="M594 1640l-318 -239h-45l123 258h240v-19zM631 1311l-123 -15v-1265l123 -15v-16h-553v16l123 15v1265l-123 15v16h553v-16zM356 139q21 381 21 525q0 143 -21 524h-4q-20 -362 -20 -524t20 -525h4z" />
    <glyph glyph-name="Icircumflex" unicode="&#xce;" horiz-adv-x="708" 
d="M354 1556l-250 -157h-24l184 278h178l185 -278h-25zM631 1311l-123 -15v-1265l123 -15v-16h-553v16l123 15v1265l-123 15v16h553v-16zM356 139q21 381 21 525q0 143 -21 524h-4q-20 -362 -20 -524t20 -525h4z" />
    <glyph glyph-name="Idieresis" unicode="&#xcf;" horiz-adv-x="708" 
d="M180 1411q-48 0 -78 26.5t-30 75.5t30.5 77t77.5 28q48 0 78.5 -28t30.5 -77t-30.5 -75.5t-78.5 -26.5zM528 1411q-48 0 -78 26.5t-30 75.5t30.5 77t77.5 28q48 0 78.5 -28t30.5 -77t-30.5 -75.5t-78.5 -26.5zM631 1327v-16l-123 -15v-1265l123 -15v-16h-553v16l123 15
v1265l-123 15v16h553zM356 139q21 381 21 525q0 143 -21 524h-4q-20 -362 -20 -524t20 -525h4z" />
    <glyph glyph-name="Eth" unicode="&#xd0;" horiz-adv-x="1425" 
d="M664 1327q145 0 261 -33.5t195 -92.5t131 -143t75.5 -181.5t23.5 -212.5t-25.5 -212.5t-82.5 -182t-144 -143.5t-215.5 -92.5t-290.5 -33.5h-514v16l123 15v604h-183v31h183v630l-123 15v16h586zM592 31q78 0 139 17t115.5 60.5t89.5 114t55.5 181.5t20.5 260t-17 260
t-46 181.5t-74 113.5t-95.5 60t-115.5 17h-156v-630h272v-31h-272v-604h84zM356 139q21 381 21 525q0 143 -21 524h-4q-20 -362 -20 -524t20 -525h4zM1001 147q34 27 67.5 67.5t69.5 103.5t58.5 153.5t22.5 192.5t-22.5 192.5t-58.5 153t-69.5 103t-67.5 67.5l-2 -2
q64 -56 119.5 -195.5t55.5 -318.5t-55.5 -318.5t-119.5 -195.5z" />
    <glyph glyph-name="Ntilde" unicode="&#xd1;" horiz-adv-x="1320" 
d="M559 1516q-34 0 -61.5 -16t-37.5 -32l-11 -16l-17 8q2 7 6.5 19.5t20.5 44t35.5 55.5t52 43.5t69.5 19.5q36 0 74.5 -19.5t67 -42.5t63.5 -42.5t64 -19.5q31 0 57.5 17t37.5 33l11 17l17 -10q-2 -7 -6.5 -19.5t-20.5 -43.5t-35.5 -54.5t-52.5 -43t-70 -19.5q-39 0 -77 19
t-63 41.5t-58.5 41.5t-65.5 19zM1278 1327v-16q-58 0 -100.5 -41t-42.5 -105v-1181h-35l-858 1165h-4v-987q0 -64 42.5 -105t100.5 -41v-16h-322v16q55 0 98 41t46 105v1040l-68 103l-55 6v16h364l652 -844h4v682q0 64 -43 105t-101 41v16h322zM1022 330l2 2
q-150 228 -305 438q-102 139 -332 420l-4 -2q174 -261 305 -438q151 -201 334 -420z" />
    <glyph glyph-name="Ograve" unicode="&#xd2;" horiz-adv-x="1482" 
d="M866 1401h-45l-317 239v19h239zM741 1343q155 0 283 -54.5t211.5 -147.5t129.5 -216t46 -261t-45.5 -261t-129 -216.5t-212 -148t-283.5 -54.5t-283.5 54.5t-211.5 148t-128.5 216.5t-45.5 261t45.5 261t129 216t211.5 147.5t283 54.5zM741 14q58 0 106 18.5t91 65
t72 119t46 186t17 261.5t-17 261.5t-46.5 186t-72.5 118.5t-90.5 64.5t-105.5 18.5t-105.5 -18.5t-90.5 -64.5t-72 -118.5t-46 -186t-17 -261.5t17 -261.5t46 -186t71.5 -119t90.5 -65t106 -18.5zM422 147l2 3q-64 55 -119 194.5t-55 319.5t55 319.5t119 194.5l-2 2
q-34 -27 -67.5 -67.5t-69.5 -103t-58 -153t-22 -192.5t22 -192.5t58 -153t69.5 -103.5t67.5 -68zM1061 147q34 27 67.5 68t69.5 103.5t58 153t22 192.5t-22 192.5t-58 153t-69.5 103t-67.5 67.5l-2 -2q64 -55 119 -194.5t55 -319.5t-55 -319.5t-119 -194.5z" />
    <glyph glyph-name="Oacute" unicode="&#xd3;" horiz-adv-x="1482" 
d="M981 1640l-317 -239h-46l123 258h240v-19zM741 1343q155 0 283 -54.5t211.5 -147.5t129.5 -216t46 -261t-45.5 -261t-129 -216.5t-212 -148t-283.5 -54.5t-283.5 54.5t-211.5 148t-128.5 216.5t-45.5 261t45.5 261t129 216t211.5 147.5t283 54.5zM741 14q58 0 106 18.5
t91 65t72 119t46 186t17 261.5t-17 261.5t-46.5 186t-72.5 118.5t-90.5 64.5t-105.5 18.5t-105.5 -18.5t-90.5 -64.5t-72 -118.5t-46 -186t-17 -261.5t17 -261.5t46 -186t71.5 -119t90.5 -65t106 -18.5zM422 147l2 3q-64 55 -119 194.5t-55 319.5t55 319.5t119 194.5l-2 2
q-34 -27 -67.5 -67.5t-69.5 -103t-58 -153t-22 -192.5t22 -192.5t58 -153t69.5 -103.5t67.5 -68zM1061 147q34 27 67.5 68t69.5 103.5t58 153t22 192.5t-22 192.5t-58 153t-69.5 103t-67.5 67.5l-2 -2q64 -55 119 -194.5t55 -319.5t-55 -319.5t-119 -194.5z" />
    <glyph glyph-name="Otilde" unicode="&#xd5;" horiz-adv-x="1482" 
d="M580 1516q-34 0 -61.5 -16t-38.5 -32l-11 -16l-16 8q2 7 6.5 19.5t20.5 44t35.5 55.5t52 43.5t69.5 19.5q36 0 74.5 -19.5t66.5 -42.5t63 -42.5t64 -19.5q31 0 58 17t38 33l11 17l16 -10q-2 -7 -6.5 -19.5t-20.5 -43.5t-35 -54.5t-52 -43t-70 -19.5q-39 0 -77 19
t-63 41.5t-58.5 41.5t-65.5 19zM741 1343q155 0 283 -54.5t211.5 -147.5t129.5 -216t46 -261t-45.5 -261t-129 -216.5t-212 -148t-283.5 -54.5t-283.5 54.5t-211.5 148t-128.5 216.5t-45.5 261t45.5 261t129 216t211.5 147.5t283 54.5zM741 14q58 0 106 18.5t91 65t72 119
t46 186t17 261.5t-17 261.5t-46.5 186t-72.5 118.5t-90.5 64.5t-105.5 18.5t-105.5 -18.5t-90.5 -64.5t-72 -118.5t-46 -186t-17 -261.5t17 -261.5t46 -186t71.5 -119t90.5 -65t106 -18.5zM422 147l2 3q-64 55 -119 194.5t-55 319.5t55 319.5t119 194.5l-2 2
q-34 -27 -67.5 -67.5t-69.5 -103t-58 -153t-22 -192.5t22 -192.5t58 -153t69.5 -103.5t67.5 -68zM1061 147q34 27 67.5 68t69.5 103.5t58 153t22 192.5t-22 192.5t-58 153t-69.5 103t-67.5 67.5l-2 -2q64 -55 119 -194.5t55 -319.5t-55 -319.5t-119 -194.5z" />
    <glyph glyph-name="Odieresis" unicode="&#xd6;" horiz-adv-x="1482" 
d="M567 1411q-48 0 -78 26.5t-30 75.5t30.5 77t77.5 28q48 0 78.5 -28t30.5 -77t-30.5 -75.5t-78.5 -26.5zM915 1411q-48 0 -78 26.5t-30 75.5t30.5 77t77.5 28q48 0 78.5 -28t30.5 -77t-30.5 -75.5t-78.5 -26.5zM741 1343q155 0 283 -54.5t211.5 -147.5t129.5 -216t46 -261
t-45.5 -261t-129 -216.5t-212 -148t-283.5 -54.5t-283.5 54.5t-211.5 148t-128.5 216.5t-45.5 261t45.5 261t129 216t211.5 147.5t283 54.5zM741 14q58 0 106 18.5t91 65t72 119t46 186t17 261.5t-17 261.5t-46.5 186t-72.5 118.5t-90.5 64.5t-105.5 18.5t-105.5 -18.5
t-90.5 -64.5t-72 -118.5t-46 -186t-17 -261.5t17 -261.5t46 -186t71.5 -119t90.5 -65t106 -18.5zM422 147l2 3q-64 55 -119 194.5t-55 319.5t55 319.5t119 194.5l-2 2q-34 -27 -67.5 -67.5t-69.5 -103t-58 -153t-22 -192.5t22 -192.5t58 -153t69.5 -103.5t67.5 -68z
M1061 147q34 27 67.5 68t69.5 103.5t58 153t22 192.5t-22 192.5t-58 153t-69.5 103t-67.5 67.5l-2 -2q64 -55 119 -194.5t55 -319.5t-55 -319.5t-119 -194.5z" />
    <glyph glyph-name="multiply" unicode="&#xd7;" horiz-adv-x="780" 
d="M666 784l-252 -252l245 -247l-24 -25l-246 248l-254 -254l-22 20l254 254l-242 242l25 25l241 -242l254 254z" />
    <glyph glyph-name="Oslash" unicode="&#xd8;" horiz-adv-x="1484" 
d="M1108 1249q147 -88 226 -242.5t79 -342.5q0 -139 -44.5 -261.5t-127.5 -216t-210.5 -148t-282.5 -54.5q-187 0 -330 73l-64 -108l-26 14l63 109q-153 88 -236 245.5t-83 346.5q0 138 45.5 261t129.5 216t213.5 147.5t287.5 54.5q185 0 333 -77l60 102l26 -14zM410 664
q0 -295 63 -449l531 918q-77 180 -256 180q-61 0 -110 -18.5t-92.5 -64.5t-72.5 -118.5t-46 -186t-17 -261.5zM205 664q0 -102 22 -192.5t58 -153t69.5 -103.5t67.5 -68l2 3q-64 55 -119 194.5t-55 319.5t55 319.5t119 194.5l-2 2q-34 -27 -67.5 -67.5t-69.5 -103t-58 -153
t-22 -192.5zM1063 147q34 27 67.5 68t69.5 103.5t58 153t22 192.5q0 101 -22 190t-57.5 152t-68.5 103.5t-67 68.5l-2 -2q64 -60 118 -197.5t54 -314.5q0 -180 -55 -319.5t-119 -194.5zM748 14q58 0 105.5 18.5t89.5 64.5t70.5 119t45 186.5t16.5 261.5q0 280 -57 434
l-529 -918q80 -166 259 -166z" />
    <glyph glyph-name="Ugrave" unicode="&#xd9;" horiz-adv-x="1333" 
d="M889 1401h-45l-318 239v19h240zM1309 1327v-16q-58 0 -101 -41t-43 -105v-698q0 -101 -25 -184t-66.5 -137.5t-97.5 -92t-115.5 -53.5t-123.5 -16q-571 0 -571 508v804l-121 15v16h551v-16l-123 -15v-952q0 -154 65.5 -242t198.5 -88q54 0 106.5 13.5t105 46.5t92 83
t64.5 130t25 180v698q0 64 -42.5 105t-100.5 41v16h322zM410 147l2 3q-26 31 -39.5 76t-22 151t-8.5 291q0 167 -20 520h-5q-20 -352 -20 -520q0 -136 8.5 -231t26.5 -150.5t34.5 -83.5t43.5 -56z" />
    <glyph glyph-name="Uacute" unicode="&#xda;" horiz-adv-x="1333" 
d="M956 1640l-317 -239h-45l123 258h239v-19zM1309 1327v-16q-58 0 -101 -41t-43 -105v-698q0 -101 -25 -184t-66.5 -137.5t-97.5 -92t-115.5 -53.5t-123.5 -16q-571 0 -571 508v804l-121 15v16h551v-16l-123 -15v-952q0 -154 65.5 -242t198.5 -88q54 0 106.5 13.5t105 46.5
t92 83t64.5 130t25 180v698q0 64 -42.5 105t-100.5 41v16h322zM410 147l2 3q-26 31 -39.5 76t-22 151t-8.5 291q0 167 -20 520h-5q-20 -352 -20 -520q0 -136 8.5 -231t26.5 -150.5t34.5 -83.5t43.5 -56z" />
    <glyph glyph-name="Ucircumflex" unicode="&#xdb;" horiz-adv-x="1333" 
d="M711 1556l-250 -157h-25l185 278h178l184 -278h-25zM1309 1327v-16q-58 0 -101 -41t-43 -105v-698q0 -101 -25 -184t-66.5 -137.5t-97.5 -92t-115.5 -53.5t-123.5 -16q-571 0 -571 508v804l-121 15v16h551v-16l-123 -15v-952q0 -154 65.5 -242t198.5 -88q54 0 106.5 13.5
t105 46.5t92 83t64.5 130t25 180v698q0 64 -42.5 105t-100.5 41v16h322zM410 147l2 3q-26 31 -39.5 76t-22 151t-8.5 291q0 167 -20 520h-5q-20 -352 -20 -520q0 -136 8.5 -231t26.5 -150.5t34.5 -83.5t43.5 -56z" />
    <glyph glyph-name="Udieresis" unicode="&#xdc;" horiz-adv-x="1333" 
d="M537 1411q-48 0 -78.5 26.5t-30.5 75.5t30.5 77t78.5 28q47 0 77.5 -28t30.5 -77t-30 -75.5t-78 -26.5zM885 1411q-48 0 -78.5 26.5t-30.5 75.5t30.5 77t78.5 28q47 0 77.5 -28t30.5 -77t-30 -75.5t-78 -26.5zM1309 1327v-16q-58 0 -101 -41t-43 -105v-698
q0 -101 -25 -184t-66.5 -137.5t-97.5 -92t-115.5 -53.5t-123.5 -16q-571 0 -571 508v804l-121 15v16h551v-16l-123 -15v-952q0 -154 65.5 -242t198.5 -88q54 0 106.5 13.5t105 46.5t92 83t64.5 130t25 180v698q0 64 -42.5 105t-100.5 41v16h322zM410 147l2 3
q-26 31 -39.5 76t-22 151t-8.5 291q0 167 -20 520h-5q-20 -352 -20 -520q0 -136 8.5 -231t26.5 -150.5t34.5 -83.5t43.5 -56z" />
    <glyph glyph-name="Yacute" unicode="&#xdd;" horiz-adv-x="1232" 
d="M895 1640l-317 -239h-46l123 258h240v-19zM1253 1327v-16l-133 -15v2l-344 -727v-540l123 -15v-16h-553v16l123 15v540l-383 725l-135 15v16h575v-16l-114 -15l340 -667h16l184 391q41 90 41 178q0 46 -36 79.5t-101 33.5v16h397zM625 139q16 300 16 426
q-18 51 -160.5 310t-177.5 313h-4q7 -16 79 -164.5t139.5 -289.5t82.5 -175q0 -26 21 -420h4z" />
    <glyph glyph-name="Thorn" unicode="&#xde;" horiz-adv-x="1193" 
d="M633 1026q138 0 241.5 -29.5t163.5 -82t88.5 -119t28.5 -146.5q0 -81 -28.5 -147.5t-88.5 -119t-163 -81.5t-242 -29h-125v-241l123 -15v-16h-553v16l123 15v1265l-123 15v16h553v-16l-123 -15v-270h125zM356 139q21 381 21 525q0 143 -21 524h-4q-20 -362 -20 -524
t20 -525h4zM633 303q34 0 60.5 9.5t50 33t39.5 62t25 99.5t9 142t-9 142t-25 99.5t-39.5 62t-50 33t-60.5 9.5h-125v-692h125zM872 389q23 13 46 32.5t47.5 50t39.5 75t15 94.5q0 96 -46.5 159t-101.5 93l-2 -2q42 -26 73.5 -96.5t31.5 -153.5t-31.5 -153.5t-73.5 -96.5z
" />
    <glyph glyph-name="germandbls" unicode="&#xdf;" horiz-adv-x="1202" 
d="M868 557q35 -5 66 -13t74.5 -28t74.5 -47.5t53.5 -75t22.5 -106.5q0 -65 -22 -117.5t-59 -86t-88 -56t-105 -32t-113 -9.5t-110.5 10t-73.5 20l-21 11l-12 194h14q34 -114 86.5 -161.5t126.5 -47.5q64 0 96.5 57.5t32.5 202.5q0 159 -70.5 217t-262.5 58v18l249 500
q-45 32 -85.5 44.5t-118.5 12.5q-75 0 -121.5 -66t-46.5 -173v-883h-396v16l99 13v755q0 164 129 266.5t336 102.5q161 0 285.5 -48.5t191.5 -119.5zM330 571q0 248 10 324q8 67 25 92l-3 2q-35 -42 -54 -167t-19 -251q0 -203 18 -424h4q19 233 19 424zM846 780
q14 28 41 91.5t37 84.5h-2q-71 -113 -97 -157q-15 -27 -44.5 -91.5t-37.5 -80.5v-6q9 15 49 73.5t54 85.5zM963 84q31 15 60.5 63t29.5 129q0 79 -29.5 125t-60.5 60l-2 -2q24 -14 44.5 -62.5t20.5 -120.5q0 -76 -19.5 -126.5t-45.5 -63.5z" />
    <glyph glyph-name="agrave" unicode="&#xe0;" horiz-adv-x="1249" 
d="M721 1202h-25l-276 260v19h219zM1176 35l131 -19v-16h-568v16l111 19l-131 321h-479l-39 -98q-19 -49 -19 -90q0 -63 47.5 -107.5t128.5 -44.5v-16h-407v16l125 19l434 1093h221zM961 139h4q-99 307 -150 434q-26 64 -55 131t-71 160.5t-56 124.5h-4q88 -272 145 -418
q36 -92 187 -432zM252 387h455l-224 547h-16z" />
    <glyph glyph-name="aacute" unicode="&#xe1;" horiz-adv-x="1249" 
d="M831 1462l-276 -260h-25l82 279h219v-19zM1176 35l131 -19v-16h-568v16l111 19l-131 321h-479l-39 -98q-19 -49 -19 -90q0 -63 47.5 -107.5t128.5 -44.5v-16h-407v16l125 19l434 1093h221zM961 139h4q-99 307 -150 434q-26 64 -55 131t-71 160.5t-56 124.5h-4
q88 -272 145 -418q36 -92 187 -432zM252 387h455l-224 547h-16z" />
    <glyph glyph-name="acircumflex" unicode="&#xe2;" horiz-adv-x="1249" 
d="M633 1378l-250 -178h-25l205 299h137l205 -299h-24zM1176 35l131 -19v-16h-568v16l111 19l-131 321h-479l-39 -98q-19 -49 -19 -90q0 -63 47.5 -107.5t128.5 -44.5v-16h-407v16l125 19l434 1093h221zM961 139h4q-99 307 -150 434q-26 64 -55 131t-71 160.5t-56 124.5h-4
q88 -272 145 -418q36 -92 187 -432zM252 387h455l-224 547h-16z" />
    <glyph glyph-name="atilde" unicode="&#xe3;" horiz-adv-x="1249" 
d="M471 1317q-34 0 -61.5 -16t-38.5 -32l-11 -16l-16 9q2 7 6.5 19.5t20.5 44t35.5 55.5t52 43.5t69.5 19.5q36 0 74.5 -19.5t67 -43t63.5 -43t64 -19.5q20 0 38 7t30 16.5t21 19.5t13 17l4 7l17 -10q-2 -7 -6.5 -19.5t-20.5 -43.5t-35.5 -54.5t-52.5 -43t-70 -19.5
q-39 0 -77 19t-63 41.5t-58.5 41.5t-65.5 19zM1176 35l131 -19v-16h-568v16l111 19l-131 321h-479l-39 -98q-19 -49 -19 -90q0 -63 47.5 -107.5t128.5 -44.5v-16h-407v16l125 19l434 1093h221zM961 139h4q-99 307 -150 434q-26 64 -55 131t-71 160.5t-56 124.5h-4
q88 -272 145 -418q36 -92 187 -432zM252 387h455l-224 547h-16z" />
    <glyph glyph-name="adieresis" unicode="&#xe4;" horiz-adv-x="1249" 
d="M459 1212q-48 0 -78.5 27t-30.5 76t30.5 76.5t78.5 27.5t78 -27.5t30 -76.5t-30 -76t-78 -27zM807 1212q-48 0 -78.5 27t-30.5 76t30.5 76.5t78.5 27.5t78 -27.5t30 -76.5t-30 -76t-78 -27zM1176 35l131 -19v-16h-568v16l111 19l-131 321h-479l-39 -98q-19 -49 -19 -90
q0 -63 47.5 -107.5t128.5 -44.5v-16h-407v16l125 19l434 1093h221zM961 139h4q-99 307 -150 434q-26 64 -55 131t-71 160.5t-56 124.5h-4q88 -272 145 -418q36 -92 187 -432zM252 387h455l-224 547h-16z" />
    <glyph glyph-name="aring" unicode="&#xe5;" horiz-adv-x="1249" 
d="M633 1229q-103 0 -159 51t-56 139q0 86 56.5 137.5t158.5 51.5t158.5 -51.5t56.5 -137.5q0 -88 -56 -139t-159 -51zM633 1579q-76 0 -76 -160q0 -162 76 -162q37 0 56.5 44t19.5 118t-19.5 117t-56.5 43zM1176 35l131 -19v-16h-568v16l111 19l-131 321h-479l-39 -98
q-19 -49 -19 -90q0 -63 47.5 -107.5t128.5 -44.5v-16h-407v16l125 19l434 1093h221zM961 139h4q-99 307 -150 434q-26 64 -55 131t-71 160.5t-56 124.5h-4q88 -272 145 -418q36 -92 187 -432zM252 387h455l-224 547h-16z" />
    <glyph glyph-name="ae" unicode="&#xe6;" horiz-adv-x="1828" 
d="M1696 350h18l-12 -350h-995v16l116 15v325h-481l-86 -123q-43 -62 -53 -90q-25 -60 9.5 -93.5t119.5 -33.5v-16h-393v16l135 19l749 1061v2l-116 14v16h970l13 -350h-19l-4 25q-23 132 -106.5 213.5t-212.5 81.5h-218v-533h107q164 0 205 201l2 10h18v-452h-18l-2 12
q-13 90 -64.5 144.5t-140.5 54.5h-107v-504h240q133 0 221 82t103 219zM362 387h461v660zM981 139q18 216 18 426q0 208 -18 424h-4q-19 -228 -19 -424q0 -198 19 -426h4z" />
    <glyph glyph-name="ccedilla" unicode="&#xe7;" horiz-adv-x="1210" 
d="M752 -14h-7q-30 -45 -43 -70q113 -4 171.5 -45t58.5 -102q0 -60 -52 -100t-153 -40q-56 0 -102.5 14.5t-64.5 28.5l-19 15l-13 88h13q2 -5 5.5 -13t17.5 -28t30.5 -35.5t43.5 -28t58 -12.5q37 0 61.5 26t24.5 85q0 71 -33 94.5t-100 23.5q11 15 60 99q-162 6 -287.5 55
t-201 129.5t-114 179.5t-38.5 213q0 93 25 177.5t79 158.5t133 128t193.5 85t253.5 31q100 0 192 -19.5t134 -39.5l42 -19l15 -291h-19l-14 41q-10 30 -25 61.5t-46 76t-67.5 78t-92.5 57.5t-119 24q-65 0 -114.5 -13.5t-94.5 -50t-74 -97t-46 -158.5t-17 -230t17 -229
t46 -157.5t74 -97t94.5 -50t114.5 -13.5q67 0 127.5 26.5t99.5 64t69.5 80.5t44.5 75t17 49l8 33h19l-15 -276q-5 -3 -15.5 -8.5t-46.5 -20t-76 -25t-103 -19.5t-129 -9zM401 150q-66 54 -109.5 164t-43.5 257q0 149 43.5 258.5t109.5 163.5l-2 2q-78 -55 -135 -160
t-57 -264q0 -83 17.5 -155t47.5 -123t61 -86.5t66 -59.5z" />
    <glyph glyph-name="egrave" unicode="&#xe8;" horiz-adv-x="1173" 
d="M727 1202h-25l-276 260v19h219zM1061 350h18l-12 -350h-995v16l116 15v1067l-116 14v16h970l13 -350h-19l-4 25q-23 132 -106.5 213.5t-212.5 81.5h-217v-533h106q164 0 205 201l2 10h18v-452h-18l-2 12q-13 90 -64.5 144.5t-140.5 54.5h-106v-504h239q133 0 221 82
t103 219zM346 139q19 228 19 426q0 196 -19 424h-4q-18 -216 -18 -424q0 -210 18 -426h4z" />
    <glyph glyph-name="eacute" unicode="&#xe9;" horiz-adv-x="1173" 
d="M823 1462l-276 -260h-25l82 279h219v-19zM1061 350h18l-12 -350h-995v16l116 15v1067l-116 14v16h970l13 -350h-19l-4 25q-23 132 -106.5 213.5t-212.5 81.5h-217v-533h106q164 0 205 201l2 10h18v-452h-18l-2 12q-13 90 -64.5 144.5t-140.5 54.5h-106v-504h239
q133 0 221 82t103 219zM346 139q19 228 19 426q0 196 -19 424h-4q-18 -216 -18 -424q0 -210 18 -426h4z" />
    <glyph glyph-name="ecircumflex" unicode="&#xea;" horiz-adv-x="1173" 
d="M639 1378l-250 -178h-24l204 299h138l204 -299h-24zM1061 350h18l-12 -350h-995v16l116 15v1067l-116 14v16h970l13 -350h-19l-4 25q-23 132 -106.5 213.5t-212.5 81.5h-217v-533h106q164 0 205 201l2 10h18v-452h-18l-2 12q-13 90 -64.5 144.5t-140.5 54.5h-106v-504
h239q133 0 221 82t103 219zM346 139q19 228 19 426q0 196 -19 424h-4q-18 -216 -18 -424q0 -210 18 -426h4z" />
    <glyph glyph-name="edieresis" unicode="&#xeb;" horiz-adv-x="1173" 
d="M465 1212q-48 0 -78.5 27t-30.5 76t30.5 76.5t78.5 27.5t78 -27.5t30 -76.5t-30 -76t-78 -27zM813 1212q-48 0 -78 27t-30 76t30 76.5t78 27.5t78.5 -27.5t30.5 -76.5t-30.5 -76t-78.5 -27zM1061 350h18l-12 -350h-995v16l116 15v1067l-116 14v16h970l13 -350h-19l-4 25
q-23 132 -106.5 213.5t-212.5 81.5h-217v-533h106q164 0 205 201l2 10h18v-452h-18l-2 12q-13 90 -64.5 144.5t-140.5 54.5h-106v-504h239q133 0 221 82t103 219zM346 139q19 228 19 426q0 196 -19 424h-4q-18 -216 -18 -424q0 -210 18 -426h4z" />
    <glyph glyph-name="igrave" unicode="&#xec;" horiz-adv-x="688" 
d="M430 1202h-24l-277 260v19h219zM614 1106l-116 -8v-1067l116 -8v-23h-540v23l116 8v1067l-116 8v22h540v-22zM346 139q19 228 19 426q0 196 -19 424h-4q-18 -216 -18 -424q0 -210 18 -426h4z" />
    <glyph glyph-name="iacute" unicode="&#xed;" horiz-adv-x="688" 
d="M541 1462l-277 -260h-24l82 279h219v-19zM614 1106l-116 -8v-1067l116 -8v-23h-540v23l116 8v1067l-116 8v22h540v-22zM346 139q19 228 19 426q0 196 -19 424h-4q-18 -216 -18 -424q0 -210 18 -426h4z" />
    <glyph glyph-name="icircumflex" unicode="&#xee;" horiz-adv-x="688" 
d="M342 1378l-250 -178h-24l204 299h138l204 -299h-24zM614 1128v-22l-116 -8v-1067l116 -8v-23h-540v23l116 8v1067l-116 8v22h540zM346 139q19 228 19 426q0 196 -19 424h-4q-18 -216 -18 -424q0 -210 18 -426h4z" />
    <glyph glyph-name="idieresis" unicode="&#xef;" horiz-adv-x="688" 
d="M168 1212q-48 0 -78.5 27t-30.5 76t30.5 76.5t78.5 27.5t78 -27.5t30 -76.5t-30 -76t-78 -27zM516 1212q-48 0 -78 27t-30 76t30 76.5t78 27.5t78.5 -27.5t30.5 -76.5t-30.5 -76t-78.5 -27zM614 1128v-22l-116 -8v-1067l116 -8v-23h-540v23l116 8v1067l-116 8v22h540z
M346 139q19 228 19 426q0 196 -19 424h-4q-18 -216 -18 -424q0 -210 18 -426h4z" />
    <glyph glyph-name="eth" unicode="&#xf0;" horiz-adv-x="1357" 
d="M633 1128q139 0 250 -29t185.5 -79.5t124 -122.5t71.5 -155t22 -179q0 -120 -39 -219t-121.5 -177.5t-225 -122.5t-335.5 -44h-491v16l116 15v485h-98v31h98v551l-116 14v16h559zM565 31q72 0 126 12t104.5 46t82.5 92.5t51 154t19 227.5q0 133 -15.5 229.5t-42 155
t-68 92.5t-85.5 46t-104 12h-135v-551h229v-31h-229v-485h67zM946 147q35 25 66 59.5t61 86t48 123.5t18 155q0 84 -17.5 156.5t-48 123t-61.5 85t-66 59.5l-2 -2q66 -54 110 -164t44 -258q0 -147 -44 -257t-110 -164zM346 139q19 228 19 426q0 196 -19 424h-4
q-18 -216 -18 -424q0 -210 18 -426h4z" />
    <glyph glyph-name="ntilde" unicode="&#xf1;" horiz-adv-x="1277" 
d="M477 1323q-21 0 -40.5 -6.5t-31.5 -15.5t-21 -18.5t-13 -16.5l-4 -6l-17 8q2 7 6.5 19.5t21 44t36 55.5t52 43.5t69.5 19.5q36 0 74.5 -19.5t66.5 -43t63 -43t64 -19.5q31 0 57.5 17t37.5 34l11 17l17 -11q-2 -7 -6.5 -19.5t-20.5 -43.5t-35.5 -54.5t-52.5 -43t-70 -19.5
q-39 0 -77 19t-63 41.5t-58.5 41.5t-65.5 19zM1221 1128v-16q-55 0 -88 -47.5t-33 -101.5v-977h-62l-811 972h-4v-792q0 -54 33 -102t88 -48v-16h-276v16q55 0 87.5 48t32.5 102v842l-69 98l-47 6v16h407l582 -706h4v541q0 54 -33 101.5t-88 47.5v16h277zM973 274h6
q-202 280 -279 375q-104 129 -301 348h-6q199 -275 277 -372q94 -119 303 -351z" />
    <glyph glyph-name="ograve" unicode="&#xf2;" horiz-adv-x="1415" 
d="M801 1202h-25l-276 260v19h219zM713 1143q119 0 222 -31t178 -85.5t128.5 -127.5t80 -158.5t26.5 -177.5q0 -115 -42.5 -218.5t-121 -183.5t-201 -127.5t-270.5 -47.5q-151 0 -275 47.5t-203.5 127.5t-123 183.5t-43.5 218.5t43.5 219.5t123 185t203.5 128t275 47.5z
M713 16q67 0 117 23t92 81t64 169t22 274q0 132 -15 230t-40.5 158.5t-64.5 97t-80.5 50t-94.5 13.5q-56 0 -99.5 -13.5t-83.5 -50t-66.5 -97t-42 -158.5t-15.5 -230q0 -131 15.5 -229t42 -158t66.5 -96.5t83.5 -50t99.5 -13.5zM401 150q-66 54 -109.5 164t-43.5 257
q0 149 43.5 258.5t109.5 163.5l-2 2q-78 -55 -135 -160t-57 -264q0 -83 17.5 -155t47.5 -123t61 -86.5t66 -59.5zM1016 147q35 24 66 59.5t61 86.5t47.5 123t17.5 155q0 159 -57 264t-135 160l-2 -2q66 -54 109.5 -163.5t43.5 -258.5q0 -147 -43.5 -257t-109.5 -164z" />
    <glyph glyph-name="oacute" unicode="&#xf3;" horiz-adv-x="1415" 
d="M911 1462l-276 -260h-25l82 279h219v-19zM713 1143q119 0 222 -31t178 -85.5t128.5 -127.5t80 -158.5t26.5 -177.5q0 -115 -42.5 -218.5t-121 -183.5t-201 -127.5t-270.5 -47.5q-151 0 -275 47.5t-203.5 127.5t-123 183.5t-43.5 218.5t43.5 219.5t123 185t203.5 128
t275 47.5zM713 16q67 0 117 23t92 81t64 169t22 274q0 132 -15 230t-40.5 158.5t-64.5 97t-80.5 50t-94.5 13.5q-56 0 -99.5 -13.5t-83.5 -50t-66.5 -97t-42 -158.5t-15.5 -230q0 -131 15.5 -229t42 -158t66.5 -96.5t83.5 -50t99.5 -13.5zM401 150q-66 54 -109.5 164
t-43.5 257q0 149 43.5 258.5t109.5 163.5l-2 2q-78 -55 -135 -160t-57 -264q0 -83 17.5 -155t47.5 -123t61 -86.5t66 -59.5zM1016 147q35 24 66 59.5t61 86.5t47.5 123t17.5 155q0 159 -57 264t-135 160l-2 -2q66 -54 109.5 -163.5t43.5 -258.5q0 -147 -43.5 -257
t-109.5 -164z" />
    <glyph glyph-name="ocircumflex" unicode="&#xf4;" horiz-adv-x="1415" 
d="M713 1378l-250 -178h-25l205 299h137l205 -299h-24zM713 1143q119 0 222 -31t178 -85.5t128.5 -127.5t80 -158.5t26.5 -177.5q0 -115 -42.5 -218.5t-121 -183.5t-201 -127.5t-270.5 -47.5q-151 0 -275 47.5t-203.5 127.5t-123 183.5t-43.5 218.5t43.5 219.5t123 185
t203.5 128t275 47.5zM713 16q67 0 117 23t92 81t64 169t22 274q0 132 -15 230t-40.5 158.5t-64.5 97t-80.5 50t-94.5 13.5q-56 0 -99.5 -13.5t-83.5 -50t-66.5 -97t-42 -158.5t-15.5 -230q0 -131 15.5 -229t42 -158t66.5 -96.5t83.5 -50t99.5 -13.5zM401 150
q-66 54 -109.5 164t-43.5 257q0 149 43.5 258.5t109.5 163.5l-2 2q-78 -55 -135 -160t-57 -264q0 -83 17.5 -155t47.5 -123t61 -86.5t66 -59.5zM1016 147q35 24 66 59.5t61 86.5t47.5 123t17.5 155q0 159 -57 264t-135 160l-2 -2q66 -54 109.5 -163.5t43.5 -258.5
q0 -147 -43.5 -257t-109.5 -164z" />
    <glyph glyph-name="otilde" unicode="&#xf5;" horiz-adv-x="1415" 
d="M551 1317q-34 0 -61.5 -16t-38.5 -32l-11 -16l-16 9q2 7 6.5 19.5t20.5 44t35.5 55.5t52 43.5t69.5 19.5q36 0 74.5 -19.5t67 -43t63.5 -43t64 -19.5q20 0 38 7t30 16.5t21 19.5t13 17l4 7l16 -10q-2 -7 -6.5 -19.5t-20.5 -43.5t-35 -54.5t-52 -43t-70 -19.5
q-39 0 -77 19t-63 41.5t-58.5 41.5t-65.5 19zM713 1143q119 0 222 -31t178 -85.5t128.5 -127.5t80 -158.5t26.5 -177.5q0 -115 -42.5 -218.5t-121 -183.5t-201 -127.5t-270.5 -47.5q-151 0 -275 47.5t-203.5 127.5t-123 183.5t-43.5 218.5t43.5 219.5t123 185t203.5 128
t275 47.5zM713 16q67 0 117 23t92 81t64 169t22 274q0 132 -15 230t-40.5 158.5t-64.5 97t-80.5 50t-94.5 13.5q-56 0 -99.5 -13.5t-83.5 -50t-66.5 -97t-42 -158.5t-15.5 -230q0 -131 15.5 -229t42 -158t66.5 -96.5t83.5 -50t99.5 -13.5zM401 150q-66 54 -109.5 164
t-43.5 257q0 149 43.5 258.5t109.5 163.5l-2 2q-78 -55 -135 -160t-57 -264q0 -83 17.5 -155t47.5 -123t61 -86.5t66 -59.5zM1016 147q35 24 66 59.5t61 86.5t47.5 123t17.5 155q0 159 -57 264t-135 160l-2 -2q66 -54 109.5 -163.5t43.5 -258.5q0 -147 -43.5 -257
t-109.5 -164z" />
    <glyph glyph-name="odieresis" unicode="&#xf6;" horiz-adv-x="1415" 
d="M539 1212q-48 0 -78.5 27t-30.5 76t30.5 76.5t78.5 27.5t78 -27.5t30 -76.5t-30 -76t-78 -27zM887 1212q-48 0 -78.5 27t-30.5 76t30.5 76.5t78.5 27.5t78 -27.5t30 -76.5t-30 -76t-78 -27zM713 1143q119 0 222 -31t178 -85.5t128.5 -127.5t80 -158.5t26.5 -177.5
q0 -115 -42.5 -218.5t-121 -183.5t-201 -127.5t-270.5 -47.5q-151 0 -275 47.5t-203.5 127.5t-123 183.5t-43.5 218.5t43.5 219.5t123 185t203.5 128t275 47.5zM713 16q67 0 117 23t92 81t64 169t22 274q0 132 -15 230t-40.5 158.5t-64.5 97t-80.5 50t-94.5 13.5
q-56 0 -99.5 -13.5t-83.5 -50t-66.5 -97t-42 -158.5t-15.5 -230q0 -131 15.5 -229t42 -158t66.5 -96.5t83.5 -50t99.5 -13.5zM401 150q-66 54 -109.5 164t-43.5 257q0 149 43.5 258.5t109.5 163.5l-2 2q-78 -55 -135 -160t-57 -264q0 -83 17.5 -155t47.5 -123t61 -86.5
t66 -59.5zM1016 147q35 24 66 59.5t61 86.5t47.5 123t17.5 155q0 159 -57 264t-135 160l-2 -2q66 -54 109.5 -163.5t43.5 -258.5q0 -147 -43.5 -257t-109.5 -164z" />
    <glyph glyph-name="divide" unicode="&#xf7;" horiz-adv-x="831" 
d="M258 795q0 70 44 109.5t112 39.5t111.5 -39.5t43.5 -109.5t-43.5 -109t-111.5 -39t-112 39t-44 109zM76 547h680v-31h-680v31zM258 266q0 70 44 110t112 40t111.5 -40t43.5 -110t-43.5 -108.5t-111.5 -38.5q-69 0 -112.5 38.5t-43.5 108.5z" />
    <glyph glyph-name="oslash" unicode="&#xf8;" horiz-adv-x="1415" 
d="M993 1092q168 -69 261.5 -212.5t93.5 -316.5q0 -115 -42.5 -218.5t-121 -183.5t-201 -127.5t-270.5 -47.5q-123 0 -228 30l-94 -200h-39l101 213q-183 64 -284 210t-101 324q0 115 43.5 219.5t123 185t203.5 128t275 47.5q136 0 248 -39l71 149h39zM406 563
q0 -313 90 -444l422 893q-65 100 -205 100q-56 0 -99.5 -13.5t-83.5 -50t-66.5 -97t-42 -158.5t-15.5 -230zM401 150q-66 54 -109.5 164t-43.5 257q0 149 43.5 258.5t109.5 163.5l-2 2q-78 -55 -135 -160t-57 -264q0 -83 17.5 -155t47.5 -123t61 -86.5t66 -59.5zM1016 147
q35 24 66 59.5t61 86.5t47.5 123t17.5 155q0 159 -57 264t-135 160l-2 -2q66 -54 109.5 -163.5t43.5 -258.5q0 -147 -43.5 -257t-109.5 -164zM713 16q67 0 117 23t92 81t64 169t22 274q0 281 -68 414l-420 -889q69 -72 193 -72z" />
    <glyph glyph-name="ugrave" unicode="&#xf9;" horiz-adv-x="1269" 
d="M805 1200h-25l-276 260v19h219zM1231 1128v-16q-55 0 -88 -47.5t-33 -101.5v-566q0 -87 -23.5 -157.5t-62.5 -117t-92 -78t-109 -45t-116 -13.5q-125 0 -221.5 23.5t-157.5 63.5t-100 97t-54.5 118.5t-15.5 133.5v676l-115 14v16h539v-16l-117 -14v-828
q0 -113 59.5 -183.5t182.5 -70.5q51 0 100 11.5t98.5 40t86.5 70.5t60 109t23 150v566q0 54 -33 101.5t-88 47.5v16h277zM397 123l6 4q-29 40 -46.5 85t-23 99.5t-6 93.5t2 105t2.5 96q0 110 -17 418h-8q-16 -290 -16 -418q0 -7 -0.5 -60t0 -66t2.5 -60t6 -66t12 -58.5
t19 -63t28 -54t39 -55.5z" />
    <glyph glyph-name="uacute" unicode="&#xfa;" horiz-adv-x="1269" 
d="M874 1460l-276 -260h-25l82 279h219v-19zM1231 1128v-16q-55 0 -88 -47.5t-33 -101.5v-566q0 -87 -23.5 -157.5t-62.5 -117t-92 -78t-109 -45t-116 -13.5q-125 0 -221.5 23.5t-157.5 63.5t-100 97t-54.5 118.5t-15.5 133.5v676l-115 14v16h539v-16l-117 -14v-828
q0 -113 59.5 -183.5t182.5 -70.5q51 0 100 11.5t98.5 40t86.5 70.5t60 109t23 150v566q0 54 -33 101.5t-88 47.5v16h277zM397 123l6 4q-29 40 -46.5 85t-23 99.5t-6 93.5t2 105t2.5 96q0 110 -17 418h-8q-16 -290 -16 -418q0 -7 -0.5 -60t0 -66t2.5 -60t6 -66t12 -58.5
t19 -63t28 -54t39 -55.5z" />
    <glyph glyph-name="ucircumflex" unicode="&#xfb;" horiz-adv-x="1269" 
d="M676 1376l-250 -178h-25l205 299h137l205 -299h-24zM1231 1128v-16q-55 0 -88 -47.5t-33 -101.5v-566q0 -87 -23.5 -157.5t-62.5 -117t-92 -78t-109 -45t-116 -13.5q-125 0 -221.5 23.5t-157.5 63.5t-100 97t-54.5 118.5t-15.5 133.5v676l-115 14v16h539v-16l-117 -14
v-828q0 -113 59.5 -183.5t182.5 -70.5q51 0 100 11.5t98.5 40t86.5 70.5t60 109t23 150v566q0 54 -33 101.5t-88 47.5v16h277zM397 123l6 4q-29 40 -46.5 85t-23 99.5t-6 93.5t2 105t2.5 96q0 110 -17 418h-8q-16 -290 -16 -418q0 -7 -0.5 -60t0 -66t2.5 -60t6 -66t12 -58.5
t19 -63t28 -54t39 -55.5z" />
    <glyph glyph-name="udieresis" unicode="&#xfc;" horiz-adv-x="1269" 
d="M502 1210q-48 0 -78.5 27t-30.5 76t30.5 76.5t78.5 27.5t78 -27.5t30 -76.5t-30 -76t-78 -27zM850 1210q-48 0 -78.5 27t-30.5 76t30.5 76.5t78.5 27.5t78 -27.5t30 -76.5t-30 -76t-78 -27zM1231 1128v-16q-55 0 -88 -47.5t-33 -101.5v-566q0 -87 -23.5 -157.5
t-62.5 -117t-92 -78t-109 -45t-116 -13.5q-125 0 -221.5 23.5t-157.5 63.5t-100 97t-54.5 118.5t-15.5 133.5v676l-115 14v16h539v-16l-117 -14v-828q0 -113 59.5 -183.5t182.5 -70.5q51 0 100 11.5t98.5 40t86.5 70.5t60 109t23 150v566q0 54 -33 101.5t-88 47.5v16h277z
M397 123l6 4q-29 40 -46.5 85t-23 99.5t-6 93.5t2 105t2.5 96q0 110 -17 418h-8q-16 -290 -16 -418q0 -7 -0.5 -60t0 -66t2.5 -60t6 -66t12 -58.5t19 -63t28 -54t39 -55.5z" />
    <glyph glyph-name="yacute" unicode="&#xfd;" horiz-adv-x="1173" 
d="M786 1462l-276 -260h-25l82 279h219v-19zM1067 1102l-319 -621v-454l116 -11v-16h-540v16l116 11v462l-358 613l-129 10v16h563v-16l-110 -10l319 -561h20l179 354q34 70 34 123q0 39 -31 66.5t-93 27.5v16h360v-16zM594 139q22 338 22 344q-6 18 -35.5 70.5t-72 123
t-80 130.5t-74.5 119t-39 63h-4q11 -25 130 -255.5t134 -262.5q0 -40 19 -332z" />
    <glyph glyph-name="thorn" unicode="&#xfe;" horiz-adv-x="1159" 
d="M621 946q107 0 193.5 -19t143 -51t94 -76.5t54 -93t16.5 -102.5q0 -68 -27 -127t-83.5 -108t-156.5 -77t-234 -28h-123v-233l123 -8v-23h-553v23l122 8v1067l-122 8v22h553v-22l-123 -8v-152h123zM346 139q19 228 19 426q0 196 -19 424h-4q-18 -216 -18 -424
q0 -210 18 -426h4zM621 295q77 0 120 68.5t43 240.5q0 90 -12 152.5t-35 96.5t-51 48t-65 14h-123v-620h123zM850 385q20 6 42.5 21.5t46 42t39 69t15.5 92.5q0 49 -15.5 90t-40.5 66t-46 39.5t-41 21.5l-2 -2q39 -18 71.5 -74t32.5 -141q0 -88 -32 -148t-72 -75z" />
    <glyph glyph-name="ydieresis" unicode="&#xff;" horiz-adv-x="1173" 
d="M424 1212q-48 0 -78.5 27t-30.5 76t30.5 76.5t78.5 27.5t78 -27.5t30 -76.5t-30 -76t-78 -27zM772 1212q-48 0 -78 27t-30 76t30 76.5t78 27.5t78.5 -27.5t30.5 -76.5t-30.5 -76t-78.5 -27zM1067 1102l-319 -621v-454l116 -11v-16h-540v16l116 11v462l-358 613l-129 10
v16h563v-16l-110 -10l319 -561h20l179 354q34 70 34 123q0 39 -31 66.5t-93 27.5v16h360v-16zM594 139q22 338 22 344q-6 18 -35.5 70.5t-72 123t-80 130.5t-74.5 119t-39 63h-4q11 -25 130 -255.5t134 -262.5q0 -40 19 -332z" />
    <glyph glyph-name="Amacron" unicode="&#x100;" horiz-adv-x="1304" 
d="M913 1528v-31h-532v31h532zM1225 31l133 -15v-16h-572v16l121 15l-139 389h-520l-51 -146q-19 -59 -19 -106q0 -71 52 -111.5t141 -40.5v-16h-426v16l127 15l465 1296h229zM1026 139h4q-7 23 -46.5 154.5t-68 223.5t-51.5 157q-18 51 -47 126t-52.5 132t-59 142.5
t-46.5 113.5h-4q127 -415 160 -514q34 -100 211 -535zM260 451h496l-244 682h-8z" />
    <glyph glyph-name="amacron" unicode="&#x101;" horiz-adv-x="1249" 
d="M897 1329v-31h-532v31h532zM1176 35l131 -19v-16h-568v16l111 19l-131 321h-479l-39 -98q-19 -49 -19 -90q0 -63 47.5 -107.5t128.5 -44.5v-16h-407v16l125 19l434 1093h221zM961 139h4q-99 307 -150 434q-26 64 -55 131t-71 160.5t-56 124.5h-4q88 -272 145 -418
q36 -92 187 -432zM252 387h455l-224 547h-16z" />
    <glyph glyph-name="Abreve" unicode="&#x102;" horiz-adv-x="1304" 
d="M668 1407q-112 0 -175.5 67.5t-62.5 208.5h27q0 -49 50 -88t161 -39t163 39t52 88h26q1 -131 -64.5 -203.5t-176.5 -72.5zM1225 31l133 -15v-16h-572v16l121 15l-139 389h-520l-51 -146q-19 -59 -19 -106q0 -71 52 -111.5t141 -40.5v-16h-426v16l127 15l465 1296h229z
M1026 139h4q-7 23 -46.5 154.5t-68 223.5t-51.5 157q-18 51 -47 126t-52.5 132t-59 142.5t-46.5 113.5h-4q127 -415 160 -514q34 -100 211 -535zM260 451h496l-244 682h-8z" />
    <glyph glyph-name="abreve" unicode="&#x103;" horiz-adv-x="1249" 
d="M633 1208q-99 0 -158.5 72t-58.5 225h26q0 -63 46 -105t145 -42q100 0 147 42.5t47 104.5h27q1 -143 -61 -220t-160 -77zM1176 35l131 -19v-16h-568v16l111 19l-131 321h-479l-39 -98q-19 -49 -19 -90q0 -63 47.5 -107.5t128.5 -44.5v-16h-407v16l125 19l434 1093h221z
M961 139h4q-99 307 -150 434q-26 64 -55 131t-71 160.5t-56 124.5h-4q88 -272 145 -418q36 -92 187 -432zM252 387h455l-224 547h-16z" />
    <glyph glyph-name="Aogonek" unicode="&#x104;" horiz-adv-x="1304" 
d="M1147 0q-105 -58 -105 -180q0 -158 109 -158q25 0 50 11t37 21l13 11l13 -22q-2 -3 -6.5 -7t-19.5 -14.5t-33 -19t-47.5 -15t-61.5 -6.5q-92 0 -143.5 40.5t-51.5 121.5q0 44 18 81.5t49 63.5t60 42.5t62 29.5h-304v16l121 15l-139 389h-520l-51 -146q-19 -59 -19 -106
q0 -71 52 -111.5t141 -40.5v-16h-426v16l127 15l465 1296h229l459 -1296l133 -15v-16h-211zM1026 139h4q-7 23 -46.5 154.5t-68 223.5t-51.5 157q-18 51 -47 126t-52.5 132t-59 142.5t-46.5 113.5h-4q127 -415 160 -514q34 -100 211 -535zM260 451h496l-244 682h-8z" />
    <glyph glyph-name="aogonek" unicode="&#x105;" horiz-adv-x="1249" 
d="M1176 35l131 -19v-16h-256q-109 -58 -109 -182q0 -158 109 -158q25 0 50 11t37 21l13 11l12 -22q-2 -3 -6.5 -7t-19.5 -14.5t-33 -19t-47.5 -15t-61.5 -6.5q-92 0 -143 40.5t-51 121.5q0 146 192 219h-254v16l111 19l-131 321h-479l-39 -98q-19 -49 -19 -90
q0 -63 47.5 -107.5t128.5 -44.5v-16h-407v16l125 19l434 1093h221zM961 139h4q-99 307 -150 434q-26 64 -55 131t-71 160.5t-56 124.5h-4q88 -272 145 -418q36 -92 187 -432zM252 387h455l-224 547h-16z" />
    <glyph glyph-name="Cacute" unicode="&#x106;" horiz-adv-x="1269" 
d="M629 1401l123 258h239v-19l-317 -239h-45zM1176 385h18l-14 -305q-6 -4 -17 -10.5t-48.5 -23t-79.5 -29t-108.5 -23t-135.5 -10.5q-181 0 -321 54t-225 149t-128 215.5t-43 261.5t43 261.5t128 215t225 148.5t321 54q68 0 135 -10t113 -24t82.5 -28t54.5 -24l18 -10v-315
h-18l-17 53q-7 26 -21 59t-45.5 83t-70 89.5t-100 68t-131.5 28.5t-125.5 -18.5t-104 -64.5t-80.5 -119t-50.5 -185.5t-18.5 -261.5q0 -185 27 -314.5t79.5 -201.5t118.5 -103t154 -31q51 0 97.5 16t80.5 38.5t65.5 57t50.5 62.5t37.5 65t25.5 53t15 38zM250 664
q0 180 55 319.5t119 194.5l-2 2q-34 -27 -67.5 -67.5t-69.5 -103t-58 -153t-22 -192.5t22 -192.5t58 -153t69.5 -103.5t67.5 -68l2 3q-64 55 -119 194.5t-55 319.5z" />
    <glyph glyph-name="cacute" unicode="&#x107;" horiz-adv-x="1210" 
d="M625 1202l82 279h219v-19l-277 -260h-24zM1118 344h19l-15 -276q-5 -3 -15.5 -8.5t-46.5 -20t-76 -25t-103 -19.5t-129 -9q-139 0 -253.5 31t-193.5 84.5t-133 127.5t-79 157.5t-25 176.5t25 177.5t79 158.5t133 128t193.5 85t253.5 31q100 0 192 -19.5t134 -39.5l42 -19
l15 -291h-19l-14 41q-10 30 -25 61.5t-46 76t-67.5 78t-92.5 57.5t-119 24q-65 0 -114.5 -13.5t-94.5 -50t-74 -97t-46 -158.5t-17 -230t17 -229t46 -157.5t74 -97t94.5 -50t114.5 -13.5q67 0 127.5 26.5t99.5 64t69.5 80.5t44.5 75t17 49zM248 571q0 149 43.5 258.5
t109.5 163.5l-2 2q-78 -55 -135 -160t-57 -264q0 -83 17.5 -155t47.5 -123t61 -86.5t66 -59.5l2 3q-66 54 -109.5 164t-43.5 257z" />
    <glyph glyph-name="Cdotaccent" unicode="&#x10a;" horiz-adv-x="1269" 
d="M643 1536q0 49 30.5 76.5t78.5 27.5t78 -27.5t30 -76.5t-30 -75.5t-78 -26.5t-78.5 26.5t-30.5 75.5zM1176 385h18l-14 -305q-6 -4 -17 -10.5t-48.5 -23t-79.5 -29t-108.5 -23t-135.5 -10.5q-181 0 -321 54t-225 149t-128 215.5t-43 261.5t43 261.5t128 215t225 148.5
t321 54q68 0 135 -10t113 -24t82.5 -28t54.5 -24l18 -10v-315h-18l-17 53q-7 26 -21 59t-45.5 83t-70 89.5t-100 68t-131.5 28.5t-125.5 -18.5t-104 -64.5t-80.5 -119t-50.5 -185.5t-18.5 -261.5q0 -185 27 -314.5t79.5 -201.5t118.5 -103t154 -31q51 0 97.5 16t80.5 38.5
t65.5 57t50.5 62.5t37.5 65t25.5 53t15 38zM250 664q0 180 55 319.5t119 194.5l-2 2q-34 -27 -67.5 -67.5t-69.5 -103t-58 -153t-22 -192.5t22 -192.5t58 -153t69.5 -103.5t67.5 -68l2 3q-64 55 -119 194.5t-55 319.5z" />
    <glyph glyph-name="cdotaccent" unicode="&#x10b;" horiz-adv-x="1210" 
d="M618 1337q0 49 30.5 77t78.5 28t78.5 -28t30.5 -77t-30.5 -75.5t-78.5 -26.5t-78.5 26.5t-30.5 75.5zM1118 344h19l-15 -276q-5 -3 -15.5 -8.5t-46.5 -20t-76 -25t-103 -19.5t-129 -9q-139 0 -253.5 31t-193.5 84.5t-133 127.5t-79 157.5t-25 176.5t25 177.5t79 158.5
t133 128t193.5 85t253.5 31q100 0 192 -19.5t134 -39.5l42 -19l15 -291h-19l-14 41q-10 30 -25 61.5t-46 76t-67.5 78t-92.5 57.5t-119 24q-65 0 -114.5 -13.5t-94.5 -50t-74 -97t-46 -158.5t-17 -230t17 -229t46 -157.5t74 -97t94.5 -50t114.5 -13.5q67 0 127.5 26.5
t99.5 64t69.5 80.5t44.5 75t17 49zM248 571q0 149 43.5 258.5t109.5 163.5l-2 2q-78 -55 -135 -160t-57 -264q0 -83 17.5 -155t47.5 -123t61 -86.5t66 -59.5l2 3q-66 54 -109.5 164t-43.5 257z" />
    <glyph glyph-name="Ccaron" unicode="&#x10c;" horiz-adv-x="1269" 
d="M1001 1688h25l-184 -289h-178l-185 289h25l250 -168zM1176 385h18l-14 -305q-6 -4 -17 -10.5t-48.5 -23t-79.5 -29t-108.5 -23t-135.5 -10.5q-181 0 -321 54t-225 149t-128 215.5t-43 261.5t43 261.5t128 215t225 148.5t321 54q68 0 135 -10t113 -24t82.5 -28t54.5 -24
l18 -10v-315h-18l-17 53q-7 26 -21 59t-45.5 83t-70 89.5t-100 68t-131.5 28.5t-125.5 -18.5t-104 -64.5t-80.5 -119t-50.5 -185.5t-18.5 -261.5q0 -185 27 -314.5t79.5 -201.5t118.5 -103t154 -31q51 0 97.5 16t80.5 38.5t65.5 57t50.5 62.5t37.5 65t25.5 53t15 38z
M250 664q0 180 55 319.5t119 194.5l-2 2q-34 -27 -67.5 -67.5t-69.5 -103t-58 -153t-22 -192.5t22 -192.5t58 -153t69.5 -103.5t67.5 -68l2 3q-64 55 -119 194.5t-55 319.5z" />
    <glyph glyph-name="ccaron" unicode="&#x10d;" horiz-adv-x="1210" 
d="M975 1509h24l-204 -309h-138l-204 309h24l250 -188zM1118 344h19l-15 -276q-5 -3 -15.5 -8.5t-46.5 -20t-76 -25t-103 -19.5t-129 -9q-139 0 -253.5 31t-193.5 84.5t-133 127.5t-79 157.5t-25 176.5t25 177.5t79 158.5t133 128t193.5 85t253.5 31q100 0 192 -19.5
t134 -39.5l42 -19l15 -291h-19l-14 41q-10 30 -25 61.5t-46 76t-67.5 78t-92.5 57.5t-119 24q-65 0 -114.5 -13.5t-94.5 -50t-74 -97t-46 -158.5t-17 -230t17 -229t46 -157.5t74 -97t94.5 -50t114.5 -13.5q67 0 127.5 26.5t99.5 64t69.5 80.5t44.5 75t17 49zM248 571
q0 149 43.5 258.5t109.5 163.5l-2 2q-78 -55 -135 -160t-57 -264q0 -83 17.5 -155t47.5 -123t61 -86.5t66 -59.5l2 3q-66 54 -109.5 164t-43.5 257z" />
    <glyph glyph-name="Dcaron" unicode="&#x10e;" horiz-adv-x="1425" 
d="M780 1399h-178l-184 289h24l250 -168l248 168h25zM664 1327q145 0 261 -33.5t195 -92.5t131 -143t75.5 -181.5t23.5 -212.5t-25.5 -212.5t-82.5 -182t-144 -143.5t-215.5 -92.5t-290.5 -33.5h-514v16l123 15v1265l-123 15v16h586zM592 31q78 0 139 17t115.5 60.5
t89.5 114t55.5 181.5t20.5 260t-17 260t-46 181.5t-74 113.5t-95.5 60t-115.5 17h-156v-1265h84zM356 139q21 381 21 525q0 143 -21 524h-4q-20 -362 -20 -524t20 -525h4zM1001 147q34 27 67.5 67.5t69.5 103.5t58.5 153.5t22.5 192.5t-22.5 192.5t-58.5 153t-69.5 103
t-67.5 67.5l-2 -2q64 -56 119.5 -195.5t55.5 -318.5t-55.5 -318.5t-119.5 -195.5z" />
    <glyph glyph-name="dcaron" unicode="&#x10f;" horiz-adv-x="1357" 
d="M719 1200h-137l-205 309h24l250 -188l248 188h25zM633 1128q139 0 250 -29t185.5 -79.5t124 -122.5t71.5 -155t22 -179q0 -120 -39 -219t-121.5 -177.5t-225 -122.5t-335.5 -44h-491v16l116 15v1067l-116 14v16h559zM565 31q72 0 126 12t104.5 46t82.5 92.5t51 154
t19 227.5q0 133 -15.5 229.5t-42 155t-68 92.5t-85.5 46t-104 12h-135v-1067h67zM946 147q35 25 66 59.5t61 86t48 123.5t18 155q0 84 -17.5 156.5t-48 123t-61.5 85t-66 59.5l-2 -2q66 -54 110 -164t44 -258q0 -147 -44 -257t-110 -164zM346 139q19 228 19 426
q0 196 -19 424h-4q-18 -216 -18 -424q0 -210 18 -426h4z" />
    <glyph glyph-name="Dcroat" unicode="&#x110;" horiz-adv-x="1425" 
d="M664 1327q145 0 261 -33.5t195 -92.5t131 -143t75.5 -181.5t23.5 -212.5t-25.5 -212.5t-82.5 -182t-144 -143.5t-215.5 -92.5t-290.5 -33.5h-514v16l123 15v604h-183v31h183v630l-123 15v16h586zM592 31q78 0 139 17t115.5 60.5t89.5 114t55.5 181.5t20.5 260t-17 260
t-46 181.5t-74 113.5t-95.5 60t-115.5 17h-156v-630h272v-31h-272v-604h84zM356 139q21 381 21 525q0 143 -21 524h-4q-20 -362 -20 -524t20 -525h4zM1001 147q34 27 67.5 67.5t69.5 103.5t58.5 153.5t22.5 192.5t-22.5 192.5t-58.5 153t-69.5 103t-67.5 67.5l-2 -2
q64 -56 119.5 -195.5t55.5 -318.5t-55.5 -318.5t-119.5 -195.5z" />
    <glyph glyph-name="dcroat" unicode="&#x111;" horiz-adv-x="1357" 
d="M633 1128q139 0 250 -29t185.5 -79.5t124 -122.5t71.5 -155t22 -179q0 -120 -39 -219t-121.5 -177.5t-225 -122.5t-335.5 -44h-491v16l116 15v485h-98v31h98v551l-116 14v16h559zM565 31q72 0 126 12t104.5 46t82.5 92.5t51 154t19 227.5q0 133 -15.5 229.5t-42 155
t-68 92.5t-85.5 46t-104 12h-135v-551h229v-31h-229v-485h67zM946 147q35 25 66 59.5t61 86t48 123.5t18 155q0 84 -17.5 156.5t-48 123t-61.5 85t-66 59.5l-2 -2q66 -54 110 -164t44 -258q0 -147 -44 -257t-110 -164zM346 139q19 228 19 426q0 196 -19 424h-4
q-18 -216 -18 -424q0 -210 18 -426h4z" />
    <glyph glyph-name="Emacron" unicode="&#x112;" horiz-adv-x="1251" 
d="M922 1528v-31h-533v31h533zM1161 387h19l-13 -387h-1089v16l123 15v1265l-123 15v16h1040l12 -387h-18l-4 33q-19 145 -107.5 234t-224.5 89h-268v-624h160q92 0 151.5 64.5t67.5 160.5l2 23h18v-523h-18l-2 23q-8 95 -67 158t-152 63h-160v-610h317q135 0 224 89.5
t108 233.5zM358 139q21 381 21 525q0 143 -21 524h-4q-20 -362 -20 -524t20 -525h4z" />
    <glyph glyph-name="emacron" unicode="&#x113;" horiz-adv-x="1173" 
d="M903 1329v-31h-532v31h532zM1061 350h18l-12 -350h-995v16l116 15v1067l-116 14v16h970l13 -350h-19l-4 25q-23 132 -106.5 213.5t-212.5 81.5h-217v-533h106q164 0 205 201l2 10h18v-452h-18l-2 12q-13 90 -64.5 144.5t-140.5 54.5h-106v-504h239q133 0 221 82t103 219z
M346 139q19 228 19 426q0 196 -19 424h-4q-18 -216 -18 -424q0 -210 18 -426h4z" />
    <glyph glyph-name="Edotaccent" unicode="&#x116;" horiz-adv-x="1251" 
d="M657 1434q-48 0 -78 26.5t-30 75.5t30 76.5t78 27.5t78.5 -27.5t30.5 -76.5t-30.5 -75.5t-78.5 -26.5zM1161 387h19l-13 -387h-1089v16l123 15v1265l-123 15v16h1040l12 -387h-18l-4 33q-19 145 -107.5 234t-224.5 89h-268v-624h160q92 0 151.5 64.5t67.5 160.5l2 23h18
v-523h-18l-2 23q-8 95 -67 158t-152 63h-160v-610h317q135 0 224 89.5t108 233.5zM358 139q21 381 21 525q0 143 -21 524h-4q-20 -362 -20 -524t20 -525h4z" />
    <glyph glyph-name="edotaccent" unicode="&#x117;" horiz-adv-x="1173" 
d="M639 1235q-48 0 -78.5 26.5t-30.5 75.5t30.5 77t78.5 28t78.5 -28t30.5 -77t-30.5 -75.5t-78.5 -26.5zM1061 350h18l-12 -350h-995v16l116 15v1067l-116 14v16h970l13 -350h-19l-4 25q-23 132 -106.5 213.5t-212.5 81.5h-217v-533h106q164 0 205 201l2 10h18v-452h-18
l-2 12q-13 90 -64.5 144.5t-140.5 54.5h-106v-504h239q133 0 221 82t103 219zM346 139q19 228 19 426q0 196 -19 424h-4q-18 -216 -18 -424q0 -210 18 -426h4z" />
    <glyph glyph-name="Eogonek" unicode="&#x118;" horiz-adv-x="1251" 
d="M1198 -295l12 -22q-2 -3 -6.5 -7t-19.5 -14.5t-33 -19t-47.5 -15t-61.5 -6.5q-92 0 -143 40.5t-51 121.5q0 145 188 217h-958v16l123 15v1265l-123 15v16h1040l12 -387h-18l-4 33q-19 145 -107.5 234t-224.5 89h-268v-624h160q92 0 151.5 64.5t67.5 160.5l2 23h18v-523
h-18l-2 23q-8 95 -67 158t-152 63h-160v-610h317q135 0 224 89.5t108 233.5l4 33h19l-13 -387h-73q-105 -58 -105 -180q0 -158 109 -158q25 0 50 11t38 21zM358 139q21 381 21 525q0 143 -21 524h-4q-20 -362 -20 -524t20 -525h4z" />
    <glyph glyph-name="eogonek" unicode="&#x119;" horiz-adv-x="1173" 
d="M1116 -297l12 -22q-2 -3 -6.5 -7t-19.5 -14.5t-32.5 -19t-47 -15t-61.5 -6.5q-92 0 -143.5 40.5t-51.5 121.5q0 146 192 219h-886v16l116 15v1067l-116 14v16h970l13 -350h-19l-4 25q-23 132 -106.5 213.5t-212.5 81.5h-217v-533h106q164 0 205 201l2 10h18v-452h-18
l-2 12q-13 90 -64.5 144.5t-140.5 54.5h-106v-504h239q133 0 221 82t103 219l2 18h18l-12 -350h-51q-109 -58 -109 -182q0 -158 109 -158q25 0 50 11t38 21zM346 139q19 228 19 426q0 196 -19 424h-4q-18 -216 -18 -424q0 -210 18 -426h4z" />
    <glyph glyph-name="Ecaron" unicode="&#x11a;" horiz-adv-x="1251" 
d="M748 1399h-179l-184 289h25l249 -168l248 168h25zM1161 387h19l-13 -387h-1089v16l123 15v1265l-123 15v16h1040l12 -387h-18l-4 33q-19 145 -107.5 234t-224.5 89h-268v-624h160q92 0 151.5 64.5t67.5 160.5l2 23h18v-523h-18l-2 23q-8 95 -67 158t-152 63h-160v-610
h317q135 0 224 89.5t108 233.5zM358 139q21 381 21 525q0 143 -21 524h-4q-20 -362 -20 -524t20 -525h4z" />
    <glyph glyph-name="ecaron" unicode="&#x11b;" horiz-adv-x="1173" 
d="M707 1200h-138l-204 309h24l250 -188l248 188h24zM1061 350h18l-12 -350h-995v16l116 15v1067l-116 14v16h970l13 -350h-19l-4 25q-23 132 -106.5 213.5t-212.5 81.5h-217v-533h106q164 0 205 201l2 10h18v-452h-18l-2 12q-13 90 -64.5 144.5t-140.5 54.5h-106v-504h239
q133 0 221 82t103 219zM346 139q19 228 19 426q0 196 -19 424h-4q-18 -216 -18 -424q0 -210 18 -426h4z" />
    <glyph glyph-name="Gbreve" unicode="&#x11e;" horiz-adv-x="1335" 
d="M770 1407q-112 0 -175.5 67.5t-62.5 208.5h27q0 -49 50 -88t161 -39t163 39t52 88h27q1 -131 -65 -203.5t-177 -72.5zM1311 502v-17l-117 -14v-371v-172h-18l-23 138q-54 -31 -146.5 -56.5t-215.5 -25.5q-181 0 -321 54t-225 149t-128 215.5t-43 261.5t43 261.5t128 215
t225 148.5t321 54q68 0 135 -10t113 -24t82.5 -28t54.5 -24l18 -10v-317h-18q-35 178 -140.5 280.5t-244.5 102.5q-70 0 -125.5 -18.5t-104 -64.5t-80.5 -119t-50.5 -185.5t-18.5 -261.5q0 -185 27 -314.5t79.5 -201.5t118.5 -103t154 -31q42 0 96 15v442l-119 12v19h543z
M422 147l2 3q-64 55 -119 194.5t-55 319.5t55 319.5t119 194.5l-2 2q-34 -27 -67.5 -67.5t-69.5 -103t-58 -153t-22 -192.5t22 -192.5t58 -153t69.5 -103.5t67.5 -68zM1040 434q-12 -105 -12 -158q0 -56 10 -149l6 4q11 72 11 145q0 82 -13 158h-2z" />
    <glyph glyph-name="gbreve" unicode="&#x11f;" horiz-adv-x="1269" 
d="M721 1206q-99 0 -158.5 72t-58.5 225h26q0 -63 46 -105t145 -42q100 0 147 42.5t47 104.5h27q1 -143 -61 -220t-160 -77zM1247 451v-17l-110 -14v-334v-154h-19l-22 121q-143 -67 -344 -67q-139 0 -253.5 31t-193.5 84.5t-133 127.5t-79 157.5t-25 176.5t25 177.5
t79 158.5t133 128t193.5 85t253.5 31q103 0 195.5 -19.5t133.5 -39.5l41 -19l15 -293h-19l-14 43q-11 33 -27.5 67t-47 77t-67.5 75.5t-92.5 55t-117.5 22.5q-65 0 -114.5 -13.5t-94.5 -50t-74 -97t-46 -158.5t-17 -230t17 -229t46 -157.5t74 -97t94.5 -50t114.5 -13.5
q19 0 75 9v395l-112 14v17h532zM401 150q-66 54 -109.5 164t-43.5 257q0 149 43.5 258.5t109.5 163.5l-2 2q-78 -55 -135 -160t-57 -264q0 -83 17.5 -155t47.5 -123t61 -86.5t66 -59.5zM985 354q-12 -81 -12 -118q0 -32 12 -119q0 1 1 2t1 2q12 54 12 115q0 64 -12 118h-2z
" />
    <glyph glyph-name="Gdotaccent" unicode="&#x120;" horiz-adv-x="1335" 
d="M752 1434q-48 0 -78.5 26.5t-30.5 75.5t30.5 76.5t78.5 27.5t78 -27.5t30 -76.5t-30 -75.5t-78 -26.5zM1311 502v-17l-117 -14v-371v-172h-18l-23 138q-54 -31 -146.5 -56.5t-215.5 -25.5q-181 0 -321 54t-225 149t-128 215.5t-43 261.5t43 261.5t128 215t225 148.5
t321 54q68 0 135 -10t113 -24t82.5 -28t54.5 -24l18 -10v-317h-18q-35 178 -140.5 280.5t-244.5 102.5q-70 0 -125.5 -18.5t-104 -64.5t-80.5 -119t-50.5 -185.5t-18.5 -261.5q0 -185 27 -314.5t79.5 -201.5t118.5 -103t154 -31q42 0 96 15v442l-119 12v19h543zM422 147l2 3
q-64 55 -119 194.5t-55 319.5t55 319.5t119 194.5l-2 2q-34 -27 -67.5 -67.5t-69.5 -103t-58 -153t-22 -192.5t22 -192.5t58 -153t69.5 -103.5t67.5 -68zM1040 434q-12 -105 -12 -158q0 -56 10 -149l6 4q11 72 11 145q0 82 -13 158h-2z" />
    <glyph glyph-name="gdotaccent" unicode="&#x121;" horiz-adv-x="1269" 
d="M721 1233q-48 0 -78.5 26.5t-30.5 75.5t30.5 77t78.5 28q47 0 77.5 -28t30.5 -77t-30 -75.5t-78 -26.5zM1247 451v-17l-110 -14v-334v-154h-19l-22 121q-143 -67 -344 -67q-139 0 -253.5 31t-193.5 84.5t-133 127.5t-79 157.5t-25 176.5t25 177.5t79 158.5t133 128
t193.5 85t253.5 31q103 0 195.5 -19.5t133.5 -39.5l41 -19l15 -293h-19l-14 43q-11 33 -27.5 67t-47 77t-67.5 75.5t-92.5 55t-117.5 22.5q-65 0 -114.5 -13.5t-94.5 -50t-74 -97t-46 -158.5t-17 -230t17 -229t46 -157.5t74 -97t94.5 -50t114.5 -13.5q19 0 75 9v395l-112 14
v17h532zM401 150q-66 54 -109.5 164t-43.5 257q0 149 43.5 258.5t109.5 163.5l-2 2q-78 -55 -135 -160t-57 -264q0 -83 17.5 -155t47.5 -123t61 -86.5t66 -59.5zM985 354q-12 -81 -12 -118q0 -32 12 -119q0 1 1 2t1 2q12 54 12 115q0 64 -12 118h-2z" />
    <glyph glyph-name="Gcommaaccent" unicode="&#x122;" horiz-adv-x="1335" 
d="M1311 502v-17l-117 -14v-371v-172h-18l-23 138q-54 -31 -146.5 -56.5t-215.5 -25.5q-181 0 -321 54t-225 149t-128 215.5t-43 261.5t43 261.5t128 215t225 148.5t321 54q68 0 135 -10t113 -24t82.5 -28t54.5 -24l18 -10v-317h-18q-35 178 -140.5 280.5t-244.5 102.5
q-70 0 -125.5 -18.5t-104 -64.5t-80.5 -119t-50.5 -185.5t-18.5 -261.5q0 -185 27 -314.5t79.5 -201.5t118.5 -103t154 -31q42 0 96 15v442l-119 12v19h543zM422 147l2 3q-64 55 -119 194.5t-55 319.5t55 319.5t119 194.5l-2 2q-34 -27 -67.5 -67.5t-69.5 -103t-58 -153
t-22 -192.5t22 -192.5t58 -153t69.5 -103.5t67.5 -68zM1040 434q-12 -105 -12 -158q0 -56 10 -149l6 4q11 72 11 145q0 82 -13 158h-2zM702 -98q37 0 69.5 -11.5t60.5 -36.5t44.5 -70t16.5 -106q0 -73 -21 -128.5t-50.5 -84.5t-67.5 -47.5t-64.5 -23t-48.5 -4.5v26
q38 0 75 14.5t70.5 43.5t54.5 82t21 122q0 22 -4 54l-27 -4q-10 -45 -45.5 -70t-83.5 -25q-59 0 -96 35.5t-37 98.5q0 64 37 99.5t96 35.5z" />
    <glyph glyph-name="gcommaaccent" unicode="&#x123;" horiz-adv-x="1269" 
d="M1247 451v-17l-110 -14v-334v-154h-19l-22 121q-143 -67 -344 -67q-139 0 -253.5 31t-193.5 84.5t-133 127.5t-79 157.5t-25 176.5t25 177.5t79 158.5t133 128t193.5 85t253.5 31q103 0 195.5 -19.5t133.5 -39.5l41 -19l15 -293h-19l-14 43q-11 33 -27.5 67t-47 77
t-67.5 75.5t-92.5 55t-117.5 22.5q-65 0 -114.5 -13.5t-94.5 -50t-74 -97t-46 -158.5t-17 -230t17 -229t46 -157.5t74 -97t94.5 -50t114.5 -13.5q19 0 75 9v395l-112 14v17h532zM401 150q-66 54 -109.5 164t-43.5 257q0 149 43.5 258.5t109.5 163.5l-2 2q-78 -55 -135 -160
t-57 -264q0 -83 17.5 -155t47.5 -123t61 -86.5t66 -59.5zM985 354q-12 -81 -12 -118q0 -32 12 -119q0 1 1 2t1 2q12 54 12 115q0 64 -12 118h-2zM735 -98q37 0 69.5 -11.5t60.5 -36.5t44.5 -70t16.5 -106q0 -73 -21 -128.5t-50.5 -84.5t-67.5 -47.5t-64.5 -23t-48.5 -4.5v26
q38 0 75 14.5t70.5 43.5t54.5 82t21 122q0 22 -4 54l-27 -4q-10 -45 -45.5 -70t-83.5 -25q-59 0 -96 35.5t-37 98.5q0 64 37 99.5t96 35.5z" />
    <glyph glyph-name="Hbar" unicode="&#x126;" horiz-adv-x="1529" 
d="M1452 1311l-123 -15v-319h119v-31h-119v-913l123 -17v-16h-553v16l123 17v618h-514v-618l123 -17v-16h-553v16l123 17v913h-109v31h109v319l-123 15v16h553v-16l-123 -15v-319h514v319l-123 15v16h553v-16zM356 139q21 381 21 525q0 143 -21 524h-4q-20 -362 -20 -524
t20 -525h4zM1178 139q20 362 20 525q0 161 -20 524h-4q-21 -381 -21 -524q0 -144 21 -525h4zM508 682h514v264h-514v-264z" />
    <glyph glyph-name="hbar" unicode="&#x127;" horiz-adv-x="1458" 
d="M1407 807h-139v-776l116 -15v-16h-540v16l117 15v522h-463v-522l116 -15v-16h-540v16l116 15v776h-139v31h139v264l-116 10v16h540v-16l-116 -10v-264h463v264l-117 10v16h540v-16l-116 -10v-264h139v-31zM346 139q19 228 19 426q0 196 -19 424h-4q-18 -216 -18 -424
q0 -210 18 -426h4zM1116 139q19 228 19 426q0 196 -19 424h-4q-18 -216 -18 -424q0 -210 18 -426h4zM498 580h463v227h-463v-227z" />
    <glyph glyph-name="Itilde" unicode="&#x128;" horiz-adv-x="708" 
d="M193 1516q-34 0 -61.5 -16t-38.5 -32l-11 -16l-16 8q2 7 6.5 19.5t20.5 44t35.5 55.5t52 43.5t69.5 19.5q36 0 74.5 -19.5t66.5 -42.5t63 -42.5t64 -19.5q31 0 58 17t38 33l11 17l16 -10q-2 -7 -6.5 -19.5t-20.5 -43.5t-35 -54.5t-52 -43t-70 -19.5q-39 0 -77 19
t-63 41.5t-58.5 41.5t-65.5 19zM631 1327v-16l-123 -15v-1265l123 -15v-16h-553v16l123 15v1265l-123 15v16h553zM356 139q21 381 21 525q0 143 -21 524h-4q-20 -362 -20 -524t20 -525h4z" />
    <glyph glyph-name="itilde" unicode="&#x129;" horiz-adv-x="688" 
d="M180 1317q-34 0 -61.5 -16t-38.5 -32l-10 -16l-17 9q2 7 6.5 19.5t21 44t36 55.5t52 43.5t69.5 19.5q36 0 74.5 -19.5t66.5 -43t63 -43t64 -19.5q20 0 38 7t30 16.5t21 19.5t13 17l4 7l17 -10q-2 -7 -6.5 -19.5t-20.5 -43.5t-35.5 -54.5t-52.5 -43t-70 -19.5
q-39 0 -77 19t-63 41.5t-58.5 41.5t-65.5 19zM614 1128v-22l-116 -8v-1067l116 -8v-23h-540v23l116 8v1067l-116 8v22h540zM346 139q19 228 19 426q0 196 -19 424h-4q-18 -216 -18 -424q0 -210 18 -426h4z" />
    <glyph glyph-name="Imacron" unicode="&#x12a;" horiz-adv-x="708" 
d="M618 1528v-31h-532v31h532zM631 1311l-123 -15v-1265l123 -15v-16h-553v16l123 15v1265l-123 15v16h553v-16zM356 139q21 381 21 525q0 143 -21 524h-4q-20 -362 -20 -524t20 -525h4z" />
    <glyph glyph-name="imacron" unicode="&#x12b;" horiz-adv-x="688" 
d="M606 1329v-31h-532v31h532zM614 1106l-116 -8v-1067l116 -8v-23h-540v23l116 8v1067l-116 8v22h540v-22zM346 139q19 228 19 426q0 196 -19 424h-4q-18 -216 -18 -424q0 -210 18 -426h4z" />
    <glyph glyph-name="Iogonek" unicode="&#x12e;" horiz-adv-x="708" 
d="M631 1311l-123 -15v-1265l123 -15v-16h-203q-104 -58 -104 -180q0 -158 108 -158q25 0 50 11t38 21l12 11l13 -22q-2 -3 -6.5 -7t-19.5 -14.5t-33 -19t-47.5 -15t-61.5 -6.5q-92 0 -143.5 40.5t-51.5 121.5q0 44 18 81.5t49 63.5t60 42.5t62 29.5h-293v16l123 15v1265
l-123 15v16h553v-16zM352 139h4q21 381 21 525q0 143 -21 524h-4q-20 -362 -20 -524t20 -525z" />
    <glyph glyph-name="iogonek" unicode="&#x12f;" horiz-adv-x="688" 
d="M614 1106l-116 -8v-1067l116 -8v-23h-196q-109 -58 -109 -182q0 -158 109 -158q25 0 50 11t38 21l12 11l12 -22q-2 -3 -6.5 -7t-19.5 -14.5t-33 -19t-47.5 -15t-61.5 -6.5q-92 0 -143 40.5t-51 121.5q0 146 192 219h-286v23l116 8v1067l-116 8v22h540v-22zM342 139h4
q19 228 19 426q0 196 -19 424h-4q-18 -216 -18 -424q0 -210 18 -426z" />
    <glyph glyph-name="Idotaccent" unicode="&#x130;" horiz-adv-x="708" 
d="M354 1434q-48 0 -78 26.5t-30 75.5t30 76.5t78 27.5t78.5 -27.5t30.5 -76.5t-30.5 -75.5t-78.5 -26.5zM631 1311l-123 -15v-1265l123 -15v-16h-553v16l123 15v1265l-123 15v16h553v-16zM356 139q21 381 21 525q0 143 -21 524h-4q-20 -362 -20 -524t20 -525h4z" />
    <glyph glyph-name="dotlessi" unicode="&#x131;" horiz-adv-x="688" 
d="M614 1106l-116 -8v-1067l116 -8v-23h-540v23l116 8v1067l-116 8v22h540v-22zM346 139q19 228 19 426q0 196 -19 424h-4q-18 -216 -18 -424q0 -210 18 -426h4z" />
    <glyph glyph-name="IJ" unicode="&#x132;" horiz-adv-x="1552" 
d="M631 1327v-16l-123 -15v-1265l123 -15v-16h-553v16l123 15v1265l-123 15v16h553zM1501 1327v-16l-123 -15v-907q0 -67 -11.5 -124.5t-40.5 -110.5t-73 -89.5t-113 -58.5t-157 -22q-112 0 -186 59.5t-74 140.5q0 51 35 87t86 36t86 -36t35 -87t-35 -86t-86 -35h-6v-10
q54 -41 133 -41q100 0 100 107v1177l-123 15v16h553zM356 139q21 381 21 525q0 143 -21 524h-4q-20 -362 -20 -524t20 -525h4zM1178 147q36 43 54.5 193t18.5 328q0 167 -20 520h-4q-21 -370 -21 -520q0 -28 0.5 -126.5t0 -137.5t-3 -104.5t-9.5 -99.5t-18 -50z" />
    <glyph glyph-name="ij" unicode="&#x133;" horiz-adv-x="1509" 
d="M614 1128v-16l-116 -14v-1067l116 -15v-16h-540v16l116 15v1067l-116 14v16h540zM1462 1128v-16l-116 -14v-756q0 -73 -18.5 -133.5t-60 -112t-118 -81t-182.5 -29.5q-115 0 -186.5 54t-73.5 126v2q0 47 32 83t80 36q50 0 84.5 -36t34.5 -83q0 -46 -34 -81t-83 -36
q58 -35 131 -35q42 0 63 21t21 49v1012l-114 14v16h540zM346 139q19 228 19 426q0 196 -19 424h-4q-18 -216 -18 -424q0 -210 18 -426h4zM1141 147q35 42 54 167t19 251q0 203 -18 424h-4q-18 -220 -18 -424q0 -247 -10 -323q-8 -67 -25 -92z" />
    <glyph glyph-name="Kcommaaccent" unicode="&#x136;" horiz-adv-x="1341" 
d="M1319 27l92 -11v-16h-428l-383 627h-92v-596l123 -15v-16h-553v16l123 15v1265l-123 15v16h553v-16l-123 -15v-639h82l377 424q47 53 47 107q0 123 -201 123v16h516v-16l-123 -15l-399 -442zM356 139q21 381 21 525q0 143 -21 524h-4q-20 -362 -20 -524t20 -525h4z
M1075 131l2 2q-123 227 -143 260q-29 44 -164 234h-2q3 -5 58 -109.5t81 -148.5q20 -33 49.5 -75t67.5 -93.5t51 -69.5zM737 -98q37 0 69.5 -11.5t60.5 -36.5t44.5 -70t16.5 -106q0 -73 -21 -128.5t-50.5 -84.5t-67.5 -47.5t-64.5 -23t-48.5 -4.5v26q38 0 75 14.5t70.5 43.5
t54.5 82t21 122q0 22 -4 54l-27 -4q-10 -45 -45.5 -70t-83.5 -25q-59 0 -96 35.5t-37 98.5q0 64 37 99.5t96 35.5z" />
    <glyph glyph-name="kcommaaccent" unicode="&#x137;" horiz-adv-x="1292" 
d="M1274 27l90 -11v-16h-434l-344 516h-88v-485l116 -15v-16h-540v16l116 15v1067l-116 14v16h540v-16l-116 -14v-551h69l369 366q41 41 41 91q0 108 -186 108v16h495v-16l-117 -14l-376 -369zM346 139q19 228 19 426q0 196 -19 424h-4q-18 -216 -18 -424q0 -210 18 -426h4z
M1024 131v6q-7 13 -27 46.5t-34 57t-33 53t-33 48.5q-98 135 -141 188h-2q11 -19 36.5 -63t47.5 -81.5t39 -63.5q21 -30 75 -98t72 -93zM707 -98q37 0 69.5 -11.5t60.5 -36.5t44 -70t16 -106q0 -73 -21 -128.5t-50.5 -84.5t-67.5 -47.5t-64.5 -23t-48.5 -4.5v26
q38 0 75 14.5t70.5 43.5t54.5 82t21 122q0 22 -4 54l-26 -4q-10 -45 -45.5 -70t-83.5 -25q-59 0 -96.5 35.5t-37.5 98.5q0 64 37.5 99.5t96.5 35.5z" />
    <glyph glyph-name="kgreenlandic" unicode="&#x138;" horiz-adv-x="1292" 
d="M1270 29l104 -6v-23h-444l-344 516h-88v-485l116 -8v-23h-540v23l116 8v1067l-116 8v22h540v-22l-116 -8v-551h69l375 373q41 41 41 86q0 100 -192 100v22h495v-22l-117 -8l-370 -363zM346 139q19 228 19 426q0 196 -19 424h-4q-18 -216 -18 -424q0 -210 18 -426h4z
M1024 131v6q-7 13 -27 46.5t-34 57t-33 53t-33 48.5q-98 135 -141 188h-2q11 -19 36.5 -63t47.5 -81.5t39 -63.5q21 -30 75 -98t72 -93z" />
    <glyph glyph-name="Lacute" unicode="&#x139;" horiz-adv-x="1142" 
d="M588 1640l-318 -239h-45l123 258h240v-19zM1092 367h18l-12 -367h-1020v16l123 15v1265l-123 15v16h553v-16l-123 -15v-1265h248q137 0 229.5 87t104.5 226zM356 139q21 381 21 525q0 143 -21 524h-4q-20 -362 -20 -524t20 -525h4z" />
    <glyph glyph-name="lacute" unicode="&#x13a;" horiz-adv-x="1093" 
d="M557 1462l-276 -260h-25l82 279h219v-19zM1040 330h19l-12 -330h-973v16l116 15v1067l-116 14v16h540v-16l-116 -14v-1067h217q134 0 219 75.5t104 208.5zM346 139q19 228 19 426q0 196 -19 424h-4q-18 -216 -18 -424q0 -210 18 -426h4z" />
    <glyph glyph-name="Lcommaaccent" unicode="&#x13b;" horiz-adv-x="1142" 
d="M1092 367h18l-12 -367h-1020v16l123 15v1265l-123 15v16h553v-16l-123 -15v-1265h248q137 0 229.5 87t104.5 226zM356 139q21 381 21 525q0 143 -21 524h-4q-20 -362 -20 -524t20 -525h4zM586 -98q37 0 69.5 -11.5t60.5 -36.5t44 -70t16 -106q0 -73 -21 -128.5
t-50.5 -84.5t-67.5 -47.5t-64.5 -23t-48.5 -4.5v26q38 0 75 14.5t70.5 43.5t54.5 82t21 122q0 22 -4 54l-26 -4q-10 -45 -45.5 -70t-83.5 -25q-59 0 -96 35.5t-37 98.5q0 64 37 99.5t96 35.5z" />
    <glyph glyph-name="lcommaaccent" unicode="&#x13c;" horiz-adv-x="1093" 
d="M1040 330h19l-12 -330h-973v16l116 15v1067l-116 14v16h540v-16l-116 -14v-1067h217q134 0 219 75.5t104 208.5zM346 139q19 228 19 426q0 196 -19 424h-4q-18 -216 -18 -424q0 -210 18 -426h4zM575 -98q37 0 69.5 -11.5t60.5 -36.5t44.5 -70t16.5 -106q0 -73 -21 -128.5
t-50.5 -84.5t-67.5 -47.5t-64.5 -23t-48.5 -4.5v26q38 0 75 14.5t70.5 43.5t54.5 82t21 122q0 22 -4 54l-26 -4q-10 -45 -46 -70t-84 -25q-59 0 -96 35.5t-37 98.5q0 64 37 99.5t96 35.5z" />
    <glyph glyph-name="Lcaron" unicode="&#x13d;" horiz-adv-x="1142" 
d="M1092 367h18l-12 -367h-1020v16l123 15v1265l-123 15v16h553v-16l-123 -15v-1265h248q137 0 229.5 87t104.5 226zM928 1309l-195 -301h-24v319h219v-18zM356 139q21 381 21 525q0 143 -21 524h-4q-20 -362 -20 -524t20 -525h4z" />
    <glyph glyph-name="lcaron" unicode="&#x13e;" horiz-adv-x="1093" 
d="M936 1202l-195 -301h-24v320h219v-19zM1040 330h19l-12 -330h-973v16l116 15v1067l-116 14v16h540v-16l-116 -14v-1067h217q134 0 219 75.5t104 208.5zM346 139q19 228 19 426q0 196 -19 424h-4q-18 -216 -18 -424q0 -210 18 -426h4z" />
    <glyph glyph-name="Ldot" unicode="&#x13f;" horiz-adv-x="1142" 
d="M1092 367h18l-12 -367h-1020v16l123 15v1265l-123 15v16h553v-16l-123 -15v-1265h248q137 0 229.5 87t104.5 226zM356 139q21 381 21 525q0 143 -21 524h-4q-20 -362 -20 -524t20 -525h4zM764 436q-68 0 -112 39t-44 109t44 109.5t112 39.5t112 -39.5t44 -109.5t-44 -109
t-112 -39z" />
    <glyph glyph-name="ldot" unicode="&#x140;" horiz-adv-x="1093" 
d="M1040 330h19l-12 -330h-973v16l116 15v1067l-116 14v16h540v-16l-116 -14v-1067h217q134 0 219 75.5t104 208.5zM346 139q19 228 19 426q0 196 -19 424h-4q-18 -216 -18 -424q0 -210 18 -426h4zM774 377q-69 0 -112.5 38.5t-43.5 108.5t44 110t112 40t112 -40t44 -110
t-43.5 -108.5t-112.5 -38.5z" />
    <glyph glyph-name="Lslash" unicode="&#x141;" horiz-adv-x="1142" 
d="M1092 367h18l-12 -367h-1020v16l123 15v526l-162 -94l-16 24l178 103v706l-123 15v16h553v-16l-123 -15v-528l227 131l17 -25l-244 -141v-702h248q137 0 229.5 87t104.5 226zM356 139q21 381 21 525q0 143 -21 524h-4q-20 -362 -20 -524t20 -525h4z" />
    <glyph glyph-name="lslash" unicode="&#x142;" horiz-adv-x="1093" 
d="M1040 330h19l-12 -330h-973v16l116 15v438l-151 -88l-16 25l167 96v596l-116 14v16h540v-16l-116 -14v-418l237 137l17 -24l-254 -146v-616h217q134 0 219 75.5t104 208.5zM346 139q19 228 19 426q0 196 -19 424h-4q-18 -216 -18 -424q0 -210 18 -426h4z" />
    <glyph glyph-name="Nacute" unicode="&#x143;" horiz-adv-x="1320" 
d="M1008 1640l-318 -239h-45l123 258h240v-19zM1278 1327v-16q-58 0 -100.5 -41t-42.5 -105v-1181h-35l-858 1165h-4v-987q0 -64 42.5 -105t100.5 -41v-16h-322v16q55 0 98 41t46 105v1040l-68 103l-55 6v16h364l652 -844h4v682q0 64 -43 105t-101 41v16h322zM1022 330l2 2
q-150 228 -305 438q-102 139 -332 420l-4 -2q174 -261 305 -438q151 -201 334 -420z" />
    <glyph glyph-name="nacute" unicode="&#x144;" horiz-adv-x="1277" 
d="M874 1468l-276 -260h-25l82 279h219v-19zM1221 1128v-16q-55 0 -88 -47.5t-33 -101.5v-977h-62l-811 972h-4v-792q0 -54 33 -102t88 -48v-16h-276v16q55 0 87.5 48t32.5 102v842l-69 98l-47 6v16h407l582 -706h4v541q0 54 -33 101.5t-88 47.5v16h277zM973 274h6
q-202 280 -279 375q-104 129 -301 348h-6q199 -275 277 -372q94 -119 303 -351z" />
    <glyph glyph-name="Ncommaaccent" unicode="&#x145;" horiz-adv-x="1320" 
d="M1278 1327v-16q-58 0 -100.5 -41t-42.5 -105v-1181h-35l-858 1165h-4v-987q0 -64 42.5 -105t100.5 -41v-16h-322v16q55 0 98 41t46 105v1040l-68 103l-55 6v16h364l652 -844h4v682q0 64 -43 105t-101 41v16h322zM1022 330l2 2q-150 228 -305 438q-102 139 -332 420l-4 -2
q174 -261 305 -438q151 -201 334 -420zM717 -98q37 0 69.5 -11.5t60.5 -36.5t44 -70t16 -106q0 -73 -21 -128.5t-50.5 -84.5t-67.5 -47.5t-64.5 -23t-48.5 -4.5v26q38 0 75 14.5t71 43.5t55 82t21 122q0 14 -5 54l-26 -4q-10 -45 -45.5 -70t-83.5 -25q-59 0 -96 35.5
t-37 98.5q0 64 37 99.5t96 35.5z" />
    <glyph glyph-name="ncommaaccent" unicode="&#x146;" horiz-adv-x="1277" 
d="M1221 1128v-16q-55 0 -88 -47.5t-33 -101.5v-977h-62l-811 972h-4v-792q0 -54 33 -102t88 -48v-16h-276v16q55 0 87.5 48t32.5 102v842l-69 98l-47 6v16h407l582 -706h4v541q0 54 -33 101.5t-88 47.5v16h277zM973 274h6q-202 280 -279 375q-104 129 -301 348h-6
q199 -275 277 -372q94 -119 303 -351zM627 -98q37 0 69.5 -11.5t60.5 -36.5t44 -70t16 -106q0 -73 -21 -128.5t-50.5 -84.5t-67.5 -47.5t-64.5 -23t-48.5 -4.5v26q38 0 75 14.5t70.5 43.5t54.5 82t21 122q0 22 -4 54l-26 -4q-10 -45 -45.5 -70t-83.5 -25q-59 0 -96 35.5
t-37 98.5q0 64 37 99.5t96 35.5z" />
    <glyph glyph-name="Ncaron" unicode="&#x147;" horiz-adv-x="1320" 
d="M811 1399h-178l-184 289h24l250 -168l248 168h24zM1278 1327v-16q-58 0 -100.5 -41t-42.5 -105v-1181h-35l-858 1165h-4v-987q0 -64 42.5 -105t100.5 -41v-16h-322v16q55 0 98 41t46 105v1040l-68 103l-55 6v16h364l652 -844h4v682q0 64 -43 105t-101 41v16h322z
M1022 330l2 2q-150 228 -305 438q-102 139 -332 420l-4 -2q174 -261 305 -438q151 -201 334 -420z" />
    <glyph glyph-name="ncaron" unicode="&#x148;" horiz-adv-x="1277" 
d="M707 1206h-138l-204 310h24l250 -189l248 189h24zM1221 1128v-16q-55 0 -88 -47.5t-33 -101.5v-977h-62l-811 972h-4v-792q0 -54 33 -102t88 -48v-16h-276v16q55 0 87.5 48t32.5 102v842l-69 98l-47 6v16h407l582 -706h4v541q0 54 -33 101.5t-88 47.5v16h277zM973 274h6
q-202 280 -279 375q-104 129 -301 348h-6q199 -275 277 -372q94 -119 303 -351z" />
    <glyph glyph-name="Eng" unicode="&#x14a;" horiz-adv-x="1316" 
d="M1278 1327v-16q-58 0 -100.5 -41t-42.5 -105v-1290q0 -85 -16 -155t-50 -127.5t-94.5 -90t-143.5 -32.5q-112 0 -186 59.5t-74 140.5q0 51 35 87t86 36t86 -36t35 -87t-35 -86t-86 -35h-6v-8q64 -43 145 -43q131 0 200 87.5t69 289.5v109l-858 1165h-4v-987
q0 -64 42.5 -105t100.5 -41v-16h-322v16q55 0 98 41t46 105v1040l-68 103l-55 6v16h364l652 -844h4v682q0 64 -43 105t-101 41v16h322zM1022 330l2 2q-150 228 -305 438q-102 139 -332 420l-4 -2q174 -261 305 -438q151 -201 334 -420z" />
    <glyph glyph-name="eng" unicode="&#x14b;" horiz-adv-x="1255" 
d="M1221 1128v-16q-55 0 -88 -47.5t-33 -101.5v-1088q0 -85 -15.5 -155t-49.5 -127.5t-94.5 -90t-143.5 -32.5q-112 0 -186 59.5t-74 140.5q0 51 34.5 87t85.5 36t86 -36t35 -87t-35 -86t-86 -35h-6v-8q64 -43 146 -43q131 0 199.5 87.5t68.5 289.5v111h-27l-811 972h-4
v-792q0 -54 33 -102t88 -48v-16h-276v16q55 0 87.5 48t32.5 102v842l-69 98l-47 6v16h407l582 -706h4v541q0 54 -33 101.5t-88 47.5v16h277zM973 274h6q-202 280 -279 375q-104 129 -301 348h-6q199 -275 277 -372q94 -119 303 -351z" />
    <glyph glyph-name="Omacron" unicode="&#x14c;" horiz-adv-x="1482" 
d="M1006 1528v-31h-533v31h533zM741 1343q155 0 283 -54.5t211.5 -147.5t129.5 -216t46 -261t-45.5 -261t-129 -216.5t-212 -148t-283.5 -54.5t-283.5 54.5t-211.5 148t-128.5 216.5t-45.5 261t45.5 261t129 216t211.5 147.5t283 54.5zM741 14q58 0 106 18.5t91 65t72 119
t46 186t17 261.5t-17 261.5t-46.5 186t-72.5 118.5t-90.5 64.5t-105.5 18.5t-105.5 -18.5t-90.5 -64.5t-72 -118.5t-46 -186t-17 -261.5t17 -261.5t46 -186t71.5 -119t90.5 -65t106 -18.5zM422 147l2 3q-64 55 -119 194.5t-55 319.5t55 319.5t119 194.5l-2 2
q-34 -27 -67.5 -67.5t-69.5 -103t-58 -153t-22 -192.5t22 -192.5t58 -153t69.5 -103.5t67.5 -68zM1061 147q34 27 67.5 68t69.5 103.5t58 153t22 192.5t-22 192.5t-58 153t-69.5 103t-67.5 67.5l-2 -2q64 -55 119 -194.5t55 -319.5t-55 -319.5t-119 -194.5z" />
    <glyph glyph-name="omacron" unicode="&#x14d;" horiz-adv-x="1415" 
d="M977 1329v-31h-533v31h533zM713 1143q119 0 222 -31t178 -85.5t128.5 -127.5t80 -158.5t26.5 -177.5q0 -115 -42.5 -218.5t-121 -183.5t-201 -127.5t-270.5 -47.5q-151 0 -275 47.5t-203.5 127.5t-123 183.5t-43.5 218.5t43.5 219.5t123 185t203.5 128t275 47.5zM713 16
q67 0 117 23t92 81t64 169t22 274q0 132 -15 230t-40.5 158.5t-64.5 97t-80.5 50t-94.5 13.5q-56 0 -99.5 -13.5t-83.5 -50t-66.5 -97t-42 -158.5t-15.5 -230q0 -131 15.5 -229t42 -158t66.5 -96.5t83.5 -50t99.5 -13.5zM401 150q-66 54 -109.5 164t-43.5 257
q0 149 43.5 258.5t109.5 163.5l-2 2q-78 -55 -135 -160t-57 -264q0 -83 17.5 -155t47.5 -123t61 -86.5t66 -59.5zM1016 147q35 24 66 59.5t61 86.5t47.5 123t17.5 155q0 159 -57 264t-135 160l-2 -2q66 -54 109.5 -163.5t43.5 -258.5q0 -147 -43.5 -257t-109.5 -164z" />
    <glyph glyph-name="Ohungarumlaut" unicode="&#x150;" horiz-adv-x="1482" 
d="M854 1640l-317 -239h-45l122 258h240v-19zM842 1401h-45l123 258h239v-19zM741 1343q155 0 283 -54.5t211.5 -147.5t129.5 -216t46 -261t-45.5 -261t-129 -216.5t-212 -148t-283.5 -54.5t-283.5 54.5t-211.5 148t-128.5 216.5t-45.5 261t45.5 261t129 216t211.5 147.5
t283 54.5zM741 14q58 0 106 18.5t91 65t72 119t46 186t17 261.5t-17 261.5t-46.5 186t-72.5 118.5t-90.5 64.5t-105.5 18.5t-105.5 -18.5t-90.5 -64.5t-72 -118.5t-46 -186t-17 -261.5t17 -261.5t46 -186t71.5 -119t90.5 -65t106 -18.5zM422 147l2 3q-64 55 -119 194.5
t-55 319.5t55 319.5t119 194.5l-2 2q-34 -27 -67.5 -67.5t-69.5 -103t-58 -153t-22 -192.5t22 -192.5t58 -153t69.5 -103.5t67.5 -68zM1061 147q34 27 67.5 68t69.5 103.5t58 153t22 192.5t-22 192.5t-58 153t-69.5 103t-67.5 67.5l-2 -2q64 -55 119 -194.5t55 -319.5
t-55 -319.5t-119 -194.5z" />
    <glyph glyph-name="ohungarumlaut" unicode="&#x151;" horiz-adv-x="1415" 
d="M825 1462l-276 -260h-25l82 279h219v-19zM1171 1462l-276 -260h-25l82 279h219v-19zM713 1143q119 0 222 -31t178 -85.5t128.5 -127.5t80 -158.5t26.5 -177.5q0 -115 -42.5 -218.5t-121 -183.5t-201 -127.5t-270.5 -47.5q-151 0 -275 47.5t-203.5 127.5t-123 183.5
t-43.5 218.5t43.5 219.5t123 185t203.5 128t275 47.5zM713 16q67 0 117 23t92 81t64 169t22 274q0 132 -15 230t-40.5 158.5t-64.5 97t-80.5 50t-94.5 13.5q-56 0 -99.5 -13.5t-83.5 -50t-66.5 -97t-42 -158.5t-15.5 -230q0 -131 15.5 -229t42 -158t66.5 -96.5t83.5 -50
t99.5 -13.5zM401 150q-66 54 -109.5 164t-43.5 257q0 149 43.5 258.5t109.5 163.5l-2 2q-78 -55 -135 -160t-57 -264q0 -83 17.5 -155t47.5 -123t61 -86.5t66 -59.5zM1016 147q35 24 66 59.5t61 86.5t47.5 123t17.5 155q0 159 -57 264t-135 160l-2 -2q66 -54 109.5 -163.5
t43.5 -258.5q0 -147 -43.5 -257t-109.5 -164z" />
    <glyph glyph-name="OE" unicode="&#x152;" horiz-adv-x="2248" 
d="M2159 387h18l-12 -387h-967v147q-181 -163 -457 -163q-155 0 -283.5 54.5t-211.5 148t-128.5 216.5t-45.5 261t45.5 261t129 216t211.5 147.5t283 54.5q274 0 457 -165v149h918l12 -387h-19l-4 33q-19 145 -107.5 234t-223.5 89h-269v-614h166q92 0 141.5 57t57.5 154
l2 22h18v-497h-18l-2 22q-8 97 -57.5 154t-141.5 57h-166v-620h318q135 0 223.5 89.5t107.5 233.5zM741 14q58 0 106 18.5t91 65t72 119t46 186t17 261.5t-17 261.5t-46.5 186t-72.5 118.5t-90.5 64.5t-105.5 18.5t-105.5 -18.5t-90.5 -64.5t-72 -118.5t-46 -186t-17 -261.5
t17 -261.5t46 -186t71.5 -119t90.5 -65t106 -18.5zM1356 139q20 362 20 525q0 161 -20 524h-4q-21 -381 -21 -524q0 -144 21 -525h4zM422 147l2 3q-64 55 -119 194.5t-55 319.5t55 319.5t119 194.5l-2 2q-34 -27 -67.5 -67.5t-69.5 -103t-58 -153t-22 -192.5t22 -192.5
t58 -153t69.5 -103.5t67.5 -68z" />
    <glyph glyph-name="oe" unicode="&#x153;" horiz-adv-x="2095" 
d="M1999 350h24l-12 -350h-921v86q-164 -100 -377 -100q-151 0 -275 47.5t-203.5 127.5t-123 183.5t-43.5 218.5t43.5 219.5t123 185t203.5 128t275 47.5q220 0 377 -101v86h874l12 -350h-24l-2 25q-12 131 -98 213t-218 82h-237v-557h141q88 0 129.5 50t56.5 142l2 10h25
v-436h-25l-2 12q-13 91 -55.5 141t-130.5 50h-141v-479h282q132 0 217.5 81.5t100.5 219.5zM713 16q67 0 117 23t92 81t64 169t22 274q0 132 -15 230t-40.5 158.5t-64.5 97t-80.5 50t-94.5 13.5q-56 0 -99.5 -13.5t-83.5 -50t-66.5 -97t-42 -158.5t-15.5 -230
q0 -131 15.5 -229t42 -158t66.5 -96.5t83.5 -50t99.5 -13.5zM401 150q-66 54 -109.5 164t-43.5 257q0 149 43.5 258.5t109.5 163.5l-2 2q-78 -55 -135 -160t-57 -264q0 -83 17.5 -155t47.5 -123t61 -86.5t66 -59.5zM1247 139q19 228 19 426q0 196 -19 424h-4
q-18 -216 -18 -424q0 -210 18 -426h4z" />
    <glyph glyph-name="Racute" unicode="&#x154;" horiz-adv-x="1361" 
d="M874 1640l-317 -239h-45l123 258h239v-19zM1337 240h19v-39q0 -101 -65.5 -159t-194.5 -58q-114 0 -183 66t-69 175v197q0 86 -46.5 139t-131.5 53h-158v-583l123 -13v-18h-553v16l123 15v1265l-123 15v16h590q133 0 232.5 -27.5t157.5 -77t85.5 -112t27.5 -139.5
q0 -149 -103 -243.5t-312 -94.5v-6q197 0 295 -81t98 -224v-121q0 -127 80 -127q90 0 104 127zM508 645h160q30 0 53.5 9t45 31.5t36 58.5t23 93.5t8.5 133.5q0 182 -43.5 253.5t-122.5 71.5h-160v-651zM897 1202q38 -24 65 -89.5t27 -141.5q0 -78 -27 -144t-65 -88l2 -2
q50 28 92.5 87t42.5 147t-42 146.5t-93 86.5zM356 139q21 381 21 525q0 143 -21 524h-4q-20 -362 -20 -524t20 -525h4zM1049 147h2q-8 4 -14 10.5t-9.5 18.5t-6 21t-3 27t-0.5 27v31v29q0 55 -18 102t-54 60h-2q8 -4 14 -10.5t9.5 -18.5t6 -21t3 -27t0.5 -26.5v-30v-28.5
q0 -57 18 -104t54 -60z" />
    <glyph glyph-name="racute" unicode="&#x155;" horiz-adv-x="1298" 
d="M819 1462l-276 -260h-25l82 279h219v-19zM1276 203h18v-23q0 -88 -64.5 -141t-189.5 -53q-112 0 -179.5 61t-67.5 160v162q0 67 -43.5 109t-118.5 42h-133v-489l116 -15v-16h-540v16l116 15v1067l-116 14v16h557q250 0 367.5 -84.5t117.5 -218.5q0 -126 -97 -206
t-300 -80v-7q189 0 284 -71t95 -195v-86q0 -106 76 -106q45 0 70 29.5t30 76.5zM498 551h133q35 0 59.5 11t45.5 39.5t31.5 84.5t10.5 139q0 84 -11 140t-32.5 84t-45.5 38.5t-58 10.5h-133v-547zM881 989q63 -29 63 -168q0 -138 -65 -168l2 -2q40 15 72 58t32 112t-31 112
t-71 58zM346 139q19 228 19 426q0 196 -19 424h-4q-18 -216 -18 -424q0 -210 18 -426h4zM993 117l2 2q-16 14 -24 38.5t-9 42.5t-1 56v51q0 39 -23.5 67.5t-50.5 37.5l-2 -2q35 -27 35 -84v-82q0 -90 73 -127z" />
    <glyph glyph-name="Rcommaaccent" unicode="&#x156;" horiz-adv-x="1361" 
d="M1337 240h19v-39q0 -101 -65.5 -159t-194.5 -58q-114 0 -183 66t-69 175v197q0 86 -46.5 139t-131.5 53h-158v-583l123 -13v-18h-553v16l123 15v1265l-123 15v16h590q133 0 232.5 -27.5t157.5 -77t85.5 -112t27.5 -139.5q0 -149 -103 -243.5t-312 -94.5v-6q197 0 295 -81
t98 -224v-121q0 -127 80 -127q90 0 104 127zM508 645h160q30 0 53.5 9t45 31.5t36 58.5t23 93.5t8.5 133.5q0 182 -43.5 253.5t-122.5 71.5h-160v-651zM897 1202q38 -24 65 -89.5t27 -141.5q0 -78 -27 -144t-65 -88l2 -2q50 28 92.5 87t42.5 147t-42 146.5t-93 86.5z
M356 139q21 381 21 525q0 143 -21 524h-4q-20 -362 -20 -524t20 -525h4zM1049 147h2q-8 4 -14 10.5t-9.5 18.5t-6 21t-3 27t-0.5 27v31v29q0 55 -18 102t-54 60h-2q8 -4 14 -10.5t9.5 -18.5t6 -21t3 -27t0.5 -26.5v-30v-28.5q0 -57 18 -104t54 -60zM702 -98q37 0 69.5 -11.5
t60.5 -36.5t44.5 -70t16.5 -106q0 -73 -21 -128.5t-50.5 -84.5t-67.5 -47.5t-64.5 -23t-48.5 -4.5v26q38 0 75 14.5t70.5 43.5t54.5 82t21 122q0 22 -4 54l-27 -4q-10 -45 -45.5 -70t-83.5 -25q-59 0 -96 35.5t-37 98.5q0 64 37 99.5t96 35.5z" />
    <glyph glyph-name="rcommaaccent" unicode="&#x157;" horiz-adv-x="1298" 
d="M1276 203h18v-23q0 -88 -64.5 -141t-189.5 -53q-112 0 -179.5 61t-67.5 160v162q0 67 -43.5 109t-118.5 42h-133v-489l116 -15v-16h-540v16l116 15v1067l-116 14v16h557q250 0 367.5 -84.5t117.5 -218.5q0 -126 -97 -206t-300 -80v-7q189 0 284 -71t95 -195v-86
q0 -106 76 -106q45 0 70 29.5t30 76.5zM498 551h133q35 0 59.5 11t45.5 39.5t31.5 84.5t10.5 139q0 84 -11 140t-32.5 84t-45.5 38.5t-58 10.5h-133v-547zM881 989q63 -29 63 -168q0 -138 -65 -168l2 -2q40 15 72 58t32 112t-31 112t-71 58zM346 139q19 228 19 426
q0 196 -19 424h-4q-18 -216 -18 -424q0 -210 18 -426h4zM993 117l2 2q-16 14 -24 38.5t-9 42.5t-1 56v51q0 39 -23.5 67.5t-50.5 37.5l-2 -2q35 -27 35 -84v-82q0 -90 73 -127zM664 -98q37 0 69.5 -11.5t60.5 -36.5t44 -70t16 -106q0 -73 -21 -128.5t-50.5 -84.5
t-67.5 -47.5t-64.5 -23t-48.5 -4.5v26q38 0 75 14.5t70.5 43.5t54.5 82t21 122q0 22 -4 54l-26 -4q-10 -45 -45.5 -70t-83.5 -25q-59 0 -96.5 35.5t-37.5 98.5q0 64 37.5 99.5t96.5 35.5z" />
    <glyph glyph-name="Rcaron" unicode="&#x158;" horiz-adv-x="1361" 
d="M727 1399h-178l-184 289h24l250 -168l248 168h24zM1337 240h19v-39q0 -101 -65.5 -159t-194.5 -58q-114 0 -183 66t-69 175v197q0 86 -46.5 139t-131.5 53h-158v-583l123 -13v-18h-553v16l123 15v1265l-123 15v16h590q133 0 232.5 -27.5t157.5 -77t85.5 -112t27.5 -139.5
q0 -149 -103 -243.5t-312 -94.5v-6q197 0 295 -81t98 -224v-121q0 -127 80 -127q90 0 104 127zM508 645h160q30 0 53.5 9t45 31.5t36 58.5t23 93.5t8.5 133.5q0 182 -43.5 253.5t-122.5 71.5h-160v-651zM897 1202q38 -24 65 -89.5t27 -141.5q0 -78 -27 -144t-65 -88l2 -2
q50 28 92.5 87t42.5 147t-42 146.5t-93 86.5zM356 139q21 381 21 525q0 143 -21 524h-4q-20 -362 -20 -524t20 -525h4zM1049 147h2q-8 4 -14 10.5t-9.5 18.5t-6 21t-3 27t-0.5 27v31v29q0 55 -18 102t-54 60h-2q8 -4 14 -10.5t9.5 -18.5t6 -21t3 -27t0.5 -26.5v-30v-28.5
q0 -57 18 -104t54 -60z" />
    <glyph glyph-name="rcaron" unicode="&#x159;" horiz-adv-x="1298" 
d="M688 1200h-137l-205 309h25l250 -188l247 188h25zM1276 203h18v-23q0 -88 -64.5 -141t-189.5 -53q-112 0 -179.5 61t-67.5 160v162q0 67 -43.5 109t-118.5 42h-133v-489l116 -15v-16h-540v16l116 15v1067l-116 14v16h557q250 0 367.5 -84.5t117.5 -218.5q0 -126 -97 -206
t-300 -80v-7q189 0 284 -71t95 -195v-86q0 -106 76 -106q45 0 70 29.5t30 76.5zM498 551h133q35 0 59.5 11t45.5 39.5t31.5 84.5t10.5 139q0 84 -11 140t-32.5 84t-45.5 38.5t-58 10.5h-133v-547zM881 989q63 -29 63 -168q0 -138 -65 -168l2 -2q40 15 72 58t32 112t-31 112
t-71 58zM346 139q19 228 19 426q0 196 -19 424h-4q-18 -216 -18 -424q0 -210 18 -426h4zM993 117l2 2q-16 14 -24 38.5t-9 42.5t-1 56v51q0 39 -23.5 67.5t-50.5 37.5l-2 -2q35 -27 35 -84v-82q0 -90 73 -127z" />
    <glyph glyph-name="Sacute" unicode="&#x15a;" horiz-adv-x="1083" 
d="M444 1401l123 258h240v-19l-318 -239h-45zM569 1343q97 0 188 -20.5t133 -40.5l42 -20l8 -310h-18l-9 43q-5 23 -12 45t-21 55t-31.5 61.5t-45 58t-59 50.5t-76 34.5t-95.5 13.5q-107 0 -164 -45.5t-57 -132.5q0 -49 22.5 -93t60.5 -79.5t87 -69.5t103.5 -67t109 -67
t103.5 -74t87 -84t60.5 -101t22.5 -121q0 -178 -134 -286.5t-346 -108.5q-100 0 -205.5 22t-160.5 44l-56 22l-16 313h19l14 -51q14 -40 31.5 -76t52.5 -83t77.5 -80.5t108 -57t142.5 -23.5q219 0 219 205q0 69 -36 127.5t-94 102t-128 85t-140 84.5t-128 90.5t-94 114
t-36 144.5q0 85 29 152t75.5 108t110 68t126 37.5t130.5 10.5zM578 696q-33 22 -83 53.5t-76.5 49t-62.5 44t-54 48t-37 51t-26.5 64t-7.5 75.5h-4q-6 -41 -4.5 -74.5t12 -63t27 -54.5t40 -48.5t51.5 -44.5t61.5 -43.5t69.5 -45.5q44 -28 67 -43q62 -42 96.5 -66.5t78.5 -60
t66.5 -64t44 -66t28 -79t3.5 -90.5h4q12 45 11.5 86t-9 74t-31 67.5t-46 60.5t-62.5 57.5t-72.5 55.5t-84.5 57z" />
    <glyph glyph-name="sacute" unicode="&#x15b;" horiz-adv-x="1038" 
d="M438 1202l82 279h219v-19l-276 -260h-25zM553 1143q90 0 178.5 -17.5t120 -29.5t45.5 -19l8 -291h-18l-6 29q-9 31 -24 65.5t-43 77.5t-63 76t-86 55.5t-108 22.5q-205 0 -205 -135q0 -52 34 -98.5t88.5 -82.5t120.5 -72t132.5 -75t121 -82t88.5 -102.5t34 -128.5
q0 -158 -127 -254t-328 -96q-96 0 -197.5 18.5t-155.5 37.5l-54 19l-17 281h19l12 -41q15 -38 49 -84t83.5 -92.5t119 -77.5t141.5 -31q102 0 151.5 38.5t49.5 119.5q0 45 -21 84.5t-57 70.5t-82.5 59t-97.5 54.5t-102.5 53.5t-98 59t-82.5 67.5t-57 83t-21 101.5
q0 78 28.5 139t73.5 97t106.5 59.5t121.5 32t125 8.5zM553 588q-30 18 -84.5 50t-77 46.5t-57.5 42t-49 49.5t-25.5 55.5t-11.5 73.5h-4q-5 -26 -4.5 -49.5t4 -43t14 -38.5t20.5 -33.5t29 -31.5t34.5 -29.5t41.5 -29.5t45 -28.5t50.5 -31t53.5 -33.5q80 -49 124.5 -80.5
t87.5 -74.5t59 -89t12 -104h4q10 35 10 68t-8.5 60.5t-27.5 55.5t-41.5 51t-56.5 49t-66 47t-76 48z" />
    <glyph glyph-name="Scedilla" unicode="&#x15e;" horiz-adv-x="1083" 
d="M1008 379q0 -171 -126.5 -279t-326.5 -116l-41 -68q113 -4 171 -45t58 -102q0 -60 -51.5 -100t-152.5 -40q-56 0 -103 14.5t-66 28.5l-18 15l-12 88h12q2 -5 6 -13t18 -28t30 -35.5t43.5 -28t58.5 -12.5q37 0 61.5 26t24.5 85q0 71 -33 94.5t-100 23.5q1 1 59 97
q-99 1 -202.5 23t-157.5 43l-54 22l-16 313h19l14 -51q14 -40 31.5 -76t52.5 -83t77.5 -80.5t108 -57t142.5 -23.5q219 0 219 205q0 69 -36 127.5t-94 102t-128 85t-140 84.5t-128 90.5t-94 114t-36 144.5q0 85 29 152t75.5 108t110 68t126 37.5t130.5 10.5q97 0 188 -20.5
t133 -40.5l42 -20l8 -310h-18l-9 43q-5 23 -12 45t-21 55t-31.5 61.5t-45 58t-59 50.5t-76 34.5t-95.5 13.5q-107 0 -164 -45.5t-57 -132.5q0 -49 22.5 -93t60.5 -79.5t87 -69.5t103.5 -67t109 -67t103.5 -74t87 -84t60.5 -101t22.5 -121zM551 664q62 -42 96.5 -66.5
t78.5 -60t66.5 -64t44 -66t28 -79t3.5 -90.5h4q12 45 11.5 86t-9 74t-31 67.5t-46 60.5t-62.5 57.5t-72.5 55.5t-84.5 57q-33 22 -83 53.5t-76.5 49t-62.5 44t-54 48t-37 51t-26.5 64t-7.5 75.5h-4q-6 -41 -4.5 -74.5t12 -63t27 -54.5t40 -48.5t51.5 -44.5t61.5 -43.5
t69.5 -45.5q44 -28 67 -43z" />
    <glyph glyph-name="scedilla" unicode="&#x15f;" horiz-adv-x="1038" 
d="M971 336q0 -154 -119.5 -249t-312.5 -101q-30 -45 -43 -70q113 -4 171 -45t58 -102q0 -60 -52 -100t-153 -40q-56 0 -102.5 14.5t-65.5 28.5l-18 15l-12 88h12q2 -5 5.5 -13t17.5 -28t30.5 -35.5t43.5 -28t58 -12.5q37 0 61.5 26t24.5 85q0 71 -33 94.5t-100 23.5
q11 15 60 99q-93 2 -191 20.5t-150 36.5l-52 18l-17 281h19l12 -41q15 -38 49 -84t83.5 -92.5t119 -77.5t141.5 -31q102 0 151.5 38.5t49.5 119.5q0 45 -21 84.5t-57 70.5t-82.5 59t-97.5 54.5t-102.5 53.5t-98 59t-82.5 67.5t-57 83t-21 101.5q0 78 28.5 139t73.5 97
t106.5 59.5t121.5 32t125 8.5q90 0 178.5 -17.5t120 -29.5t45.5 -19l8 -291h-18l-6 29q-9 31 -24 65.5t-43 77.5t-63 76t-86 55.5t-108 22.5q-205 0 -205 -135q0 -52 34 -98.5t88.5 -82.5t120.5 -72t132.5 -75t121 -82t88.5 -102.5t34 -128.5zM532 557q80 -49 124.5 -80.5
t87.5 -74.5t59 -89t12 -104h4q10 35 10 68t-8.5 60.5t-27.5 55.5t-41.5 51t-56.5 49t-66 47t-76 48q-30 18 -84.5 50t-77 46.5t-57.5 42t-49 49.5t-25.5 55.5t-11.5 73.5h-4q-5 -26 -4.5 -49.5t4 -43t14 -38.5t20.5 -33.5t29 -31.5t34.5 -29.5t41.5 -29.5t45 -28.5t50.5 -31
t53.5 -33.5z" />
    <glyph glyph-name="Scaron" unicode="&#x160;" horiz-adv-x="1083" 
d="M817 1688h25l-185 -289h-178l-184 289h24l250 -168zM569 1343q97 0 188 -20.5t133 -40.5l42 -20l8 -310h-18l-9 43q-5 23 -12 45t-21 55t-31.5 61.5t-45 58t-59 50.5t-76 34.5t-95.5 13.5q-107 0 -164 -45.5t-57 -132.5q0 -49 22.5 -93t60.5 -79.5t87 -69.5t103.5 -67
t109 -67t103.5 -74t87 -84t60.5 -101t22.5 -121q0 -178 -134 -286.5t-346 -108.5q-100 0 -205.5 22t-160.5 44l-56 22l-16 313h19l14 -51q14 -40 31.5 -76t52.5 -83t77.5 -80.5t108 -57t142.5 -23.5q219 0 219 205q0 69 -36 127.5t-94 102t-128 85t-140 84.5t-128 90.5
t-94 114t-36 144.5q0 85 29 152t75.5 108t110 68t126 37.5t130.5 10.5zM578 696q-33 22 -83 53.5t-76.5 49t-62.5 44t-54 48t-37 51t-26.5 64t-7.5 75.5h-4q-6 -41 -4.5 -74.5t12 -63t27 -54.5t40 -48.5t51.5 -44.5t61.5 -43.5t69.5 -45.5q44 -28 67 -43q62 -42 96.5 -66.5
t78.5 -60t66.5 -64t44 -66t28 -79t3.5 -90.5h4q12 45 11.5 86t-9 74t-31 67.5t-46 60.5t-62.5 57.5t-72.5 55.5t-84.5 57z" />
    <glyph glyph-name="scaron" unicode="&#x161;" horiz-adv-x="1038" 
d="M788 1509h25l-205 -309h-137l-205 309h25l250 -188zM553 1143q90 0 178.5 -17.5t120 -29.5t45.5 -19l8 -291h-18l-6 29q-9 31 -24 65.5t-43 77.5t-63 76t-86 55.5t-108 22.5q-205 0 -205 -135q0 -52 34 -98.5t88.5 -82.5t120.5 -72t132.5 -75t121 -82t88.5 -102.5
t34 -128.5q0 -158 -127 -254t-328 -96q-96 0 -197.5 18.5t-155.5 37.5l-54 19l-17 281h19l12 -41q15 -38 49 -84t83.5 -92.5t119 -77.5t141.5 -31q102 0 151.5 38.5t49.5 119.5q0 45 -21 84.5t-57 70.5t-82.5 59t-97.5 54.5t-102.5 53.5t-98 59t-82.5 67.5t-57 83t-21 101.5
q0 78 28.5 139t73.5 97t106.5 59.5t121.5 32t125 8.5zM553 588q-30 18 -84.5 50t-77 46.5t-57.5 42t-49 49.5t-25.5 55.5t-11.5 73.5h-4q-5 -26 -4.5 -49.5t4 -43t14 -38.5t20.5 -33.5t29 -31.5t34.5 -29.5t41.5 -29.5t45 -28.5t50.5 -31t53.5 -33.5q80 -49 124.5 -80.5
t87.5 -74.5t59 -89t12 -104h4q10 35 10 68t-8.5 60.5t-27.5 55.5t-41.5 51t-56.5 49t-66 47t-76 48z" />
    <glyph glyph-name="uni0162" unicode="&#x162;" horiz-adv-x="1273" 
d="M1227 1327l12 -387h-18l-4 33q-19 145 -107.5 234t-224.5 89h-94v-1265l122 -15v-16h-258l-51 -84q113 -4 171.5 -45t58.5 -102q0 -60 -52 -100t-153 -40q-56 0 -103 14.5t-66 28.5l-18 15l-12 88h12q2 -5 6 -13t18 -28t30 -35.5t43.5 -28t58.5 -12.5q37 0 61.5 26
t24.5 85q0 71 -33 94.5t-100 23.5q6 7 32 51t35 62h-258v16l123 15v1265h-94q-135 0 -224 -89.5t-108 -233.5l-4 -33h-18l12 387h1180zM639 139q20 363 20 525q0 161 -20 524h-4q-21 -381 -21 -524q0 -144 21 -525h4z" />
    <glyph glyph-name="uni0163" unicode="&#x163;" horiz-adv-x="1218" 
d="M1171 1128l13 -350h-19l-4 25q-23 132 -106.5 213.5t-214.5 81.5h-78v-1067l117 -15v-16h-252l-52 -84q113 -4 171.5 -45t58.5 -102q0 -60 -52 -100t-153 -40q-56 0 -102.5 14.5t-65.5 28.5l-18 15l-13 88h13q2 -5 5.5 -13t17.5 -28t30.5 -35.5t43.5 -28t58 -12.5
q37 0 61.5 26t24.5 85q0 71 -33 94.5t-100 23.5q6 7 32.5 51t35.5 62h-252v16l117 15v1067h-78q-130 0 -213.5 -81.5t-106.5 -213.5l-4 -25h-18l12 350h1124zM610 139q19 228 19 426q0 196 -19 424h-4q-18 -216 -18 -424q0 -210 18 -426h4z" />
    <glyph glyph-name="Tcaron" unicode="&#x164;" horiz-adv-x="1273" 
d="M727 1399h-178l-184 289h24l250 -168l248 168h24zM1227 1327l12 -387h-18l-4 33q-19 145 -107.5 234t-224.5 89h-94v-1265l122 -15v-16h-553v16l123 15v1265h-94q-135 0 -224 -89.5t-108 -233.5l-4 -33h-18l12 387h1180zM639 139q20 363 20 525q0 161 -20 524h-4
q-21 -381 -21 -524q0 -144 21 -525h4z" />
    <glyph glyph-name="tcaron" unicode="&#x165;" horiz-adv-x="1218" 
d="M676 1200h-137l-205 309h24l250 -188l248 188h25zM1171 1128l13 -350h-19l-4 25q-23 132 -106.5 213.5t-214.5 81.5h-78v-1067l117 -15v-16h-541v16l117 15v1067h-78q-130 0 -213.5 -81.5t-106.5 -213.5l-4 -25h-18l12 350h1124zM610 139q19 228 19 426q0 196 -19 424h-4
q-18 -216 -18 -424q0 -210 18 -426h4z" />
    <glyph glyph-name="Tbar" unicode="&#x166;" horiz-adv-x="1273" 
d="M1227 1327l12 -387h-18l-4 33q-19 145 -107.5 234t-224.5 89h-94v-616h153v-31h-153v-618l122 -15v-16h-553v16l123 15v618h-178v31h178v616h-94q-135 0 -224 -89.5t-108 -233.5l-4 -33h-18l12 387h1180zM639 139q20 363 20 525q0 161 -20 524h-4q-21 -381 -21 -524
q0 -144 21 -525h4z" />
    <glyph glyph-name="tbar" unicode="&#x167;" horiz-adv-x="1218" 
d="M1171 1128l13 -350h-19l-4 25q-23 132 -106.5 213.5t-214.5 81.5h-78v-549h153v-31h-153v-487l117 -15v-16h-541v16l117 15v487h-179v31h179v549h-78q-130 0 -213.5 -81.5t-106.5 -213.5l-4 -25h-18l12 350h1124zM610 139q19 228 19 426q0 196 -19 424h-4
q-18 -216 -18 -424q0 -210 18 -426h4z" />
    <glyph glyph-name="Utilde" unicode="&#x168;" horiz-adv-x="1333" 
d="M549 1516q-34 0 -61.5 -16t-38.5 -32l-11 -16l-16 8q2 7 6.5 19.5t20.5 44t35.5 55.5t52 43.5t69.5 19.5q36 0 74.5 -19.5t66.5 -42.5t63 -42.5t64 -19.5q31 0 58 17t38 33l11 17l16 -10q-2 -7 -6.5 -19.5t-20.5 -43.5t-35 -54.5t-52 -43t-70 -19.5q-39 0 -77 19
t-63 41.5t-58.5 41.5t-65.5 19zM1309 1327v-16q-58 0 -101 -41t-43 -105v-698q0 -101 -25 -184t-66.5 -137.5t-97.5 -92t-115.5 -53.5t-123.5 -16q-571 0 -571 508v804l-121 15v16h551v-16l-123 -15v-952q0 -154 65.5 -242t198.5 -88q54 0 106.5 13.5t105 46.5t92 83
t64.5 130t25 180v698q0 64 -42.5 105t-100.5 41v16h322zM410 147l2 3q-26 31 -39.5 76t-22 151t-8.5 291q0 167 -20 520h-5q-20 -352 -20 -520q0 -136 8.5 -231t26.5 -150.5t34.5 -83.5t43.5 -56z" />
    <glyph glyph-name="utilde" unicode="&#x169;" horiz-adv-x="1269" 
d="M514 1315q-34 0 -61.5 -16t-38.5 -32l-11 -16l-16 9q2 7 6.5 19.5t20.5 44t35.5 55.5t52 43.5t69.5 19.5q36 0 74.5 -19.5t67 -43t63.5 -43t64 -19.5q20 0 38 7t30 16.5t21 19.5t13 17l4 7l17 -10q-2 -7 -6.5 -19.5t-20.5 -43.5t-35.5 -54.5t-52.5 -43t-70 -19.5
q-39 0 -77 19t-63 41.5t-58.5 41.5t-65.5 19zM1231 1128v-16q-55 0 -88 -47.5t-33 -101.5v-566q0 -87 -23.5 -157.5t-62.5 -117t-92 -78t-109 -45t-116 -13.5q-125 0 -221.5 23.5t-157.5 63.5t-100 97t-54.5 118.5t-15.5 133.5v676l-115 14v16h539v-16l-117 -14v-828
q0 -113 59.5 -183.5t182.5 -70.5q51 0 100 11.5t98.5 40t86.5 70.5t60 109t23 150v566q0 54 -33 101.5t-88 47.5v16h277zM397 123l6 4q-29 40 -46.5 85t-23 99.5t-6 93.5t2 105t2.5 96q0 110 -17 418h-8q-16 -290 -16 -418q0 -7 -0.5 -60t0 -66t2.5 -60t6 -66t12 -58.5
t19 -63t28 -54t39 -55.5z" />
    <glyph glyph-name="Umacron" unicode="&#x16a;" horiz-adv-x="1333" 
d="M975 1528v-31h-533v31h533zM1309 1327v-16q-58 0 -101 -41t-43 -105v-698q0 -101 -25 -184t-66.5 -137.5t-97.5 -92t-115.5 -53.5t-123.5 -16q-571 0 -571 508v804l-121 15v16h551v-16l-123 -15v-952q0 -154 65.5 -242t198.5 -88q54 0 106.5 13.5t105 46.5t92 83
t64.5 130t25 180v698q0 64 -42.5 105t-100.5 41v16h322zM410 147l2 3q-26 31 -39.5 76t-22 151t-8.5 291q0 167 -20 520h-5q-20 -352 -20 -520q0 -136 8.5 -231t26.5 -150.5t34.5 -83.5t43.5 -56z" />
    <glyph glyph-name="umacron" unicode="&#x16b;" horiz-adv-x="1269" 
d="M940 1327v-31h-532v31h532zM1231 1128v-16q-55 0 -88 -47.5t-33 -101.5v-566q0 -87 -23.5 -157.5t-62.5 -117t-92 -78t-109 -45t-116 -13.5q-125 0 -221.5 23.5t-157.5 63.5t-100 97t-54.5 118.5t-15.5 133.5v676l-115 14v16h539v-16l-117 -14v-828q0 -113 59.5 -183.5
t182.5 -70.5q51 0 100 11.5t98.5 40t86.5 70.5t60 109t23 150v566q0 54 -33 101.5t-88 47.5v16h277zM397 123l6 4q-29 40 -46.5 85t-23 99.5t-6 93.5t2 105t2.5 96q0 110 -17 418h-8q-16 -290 -16 -418q0 -7 -0.5 -60t0 -66t2.5 -60t6 -66t12 -58.5t19 -63t28 -54t39 -55.5z
" />
    <glyph glyph-name="Uring" unicode="&#x16e;" horiz-adv-x="1333" 
d="M711 1427q-103 0 -159 51.5t-56 139.5q0 86 56 137t159 51t159 -51t56 -137q0 -88 -56 -139.5t-159 -51.5zM711 1778q-76 0 -76 -160q0 -162 76 -162q37 0 56 43.5t19 118.5q0 74 -19 117t-56 43zM1309 1327v-16q-58 0 -101 -41t-43 -105v-698q0 -101 -25 -184
t-66.5 -137.5t-97.5 -92t-115.5 -53.5t-123.5 -16q-571 0 -571 508v804l-121 15v16h551v-16l-123 -15v-952q0 -154 65.5 -242t198.5 -88q54 0 106.5 13.5t105 46.5t92 83t64.5 130t25 180v698q0 64 -42.5 105t-100.5 41v16h322zM410 147l2 3q-26 31 -39.5 76t-22 151
t-8.5 291q0 167 -20 520h-5q-20 -352 -20 -520q0 -136 8.5 -231t26.5 -150.5t34.5 -83.5t43.5 -56z" />
    <glyph glyph-name="uring" unicode="&#x16f;" horiz-adv-x="1269" 
d="M676 1227q-103 0 -159 51t-56 139q0 86 56.5 137.5t158.5 51.5t158.5 -51.5t56.5 -137.5q0 -88 -56 -139t-159 -51zM676 1577q-76 0 -76 -160q0 -162 76 -162q37 0 56.5 44t19.5 118t-19.5 117t-56.5 43zM1231 1128v-16q-55 0 -88 -47.5t-33 -101.5v-566
q0 -87 -23.5 -157.5t-62.5 -117t-92 -78t-109 -45t-116 -13.5q-125 0 -221.5 23.5t-157.5 63.5t-100 97t-54.5 118.5t-15.5 133.5v676l-115 14v16h539v-16l-117 -14v-828q0 -113 59.5 -183.5t182.5 -70.5q51 0 100 11.5t98.5 40t86.5 70.5t60 109t23 150v566q0 54 -33 101.5
t-88 47.5v16h277zM397 123l6 4q-29 40 -46.5 85t-23 99.5t-6 93.5t2 105t2.5 96q0 110 -17 418h-8q-16 -290 -16 -418q0 -7 -0.5 -60t0 -66t2.5 -60t6 -66t12 -58.5t19 -63t28 -54t39 -55.5z" />
    <glyph glyph-name="Uhungarumlaut" unicode="&#x170;" horiz-adv-x="1333" 
d="M823 1640l-317 -239h-45l123 258h239v-19zM811 1401h-45l123 258h239v-19zM1309 1327v-16q-58 0 -101 -41t-43 -105v-698q0 -101 -25 -184t-66.5 -137.5t-97.5 -92t-115.5 -53.5t-123.5 -16q-571 0 -571 508v804l-121 15v16h551v-16l-123 -15v-952q0 -154 65.5 -242
t198.5 -88q54 0 106.5 13.5t105 46.5t92 83t64.5 130t25 180v698q0 64 -42.5 105t-100.5 41v16h322zM410 147l2 3q-26 31 -39.5 76t-22 151t-8.5 291q0 167 -20 520h-5q-20 -352 -20 -520q0 -136 8.5 -231t26.5 -150.5t34.5 -83.5t43.5 -56z" />
    <glyph glyph-name="uhungarumlaut" unicode="&#x171;" horiz-adv-x="1269" 
d="M788 1460l-276 -260h-25l82 279h219v-19zM1135 1460l-277 -260h-24l81 279h220v-19zM1231 1128v-16q-55 0 -88 -47.5t-33 -101.5v-566q0 -87 -23.5 -157.5t-62.5 -117t-92 -78t-109 -45t-116 -13.5q-125 0 -221.5 23.5t-157.5 63.5t-100 97t-54.5 118.5t-15.5 133.5v676
l-115 14v16h539v-16l-117 -14v-828q0 -113 59.5 -183.5t182.5 -70.5q51 0 100 11.5t98.5 40t86.5 70.5t60 109t23 150v566q0 54 -33 101.5t-88 47.5v16h277zM397 123l6 4q-29 40 -46.5 85t-23 99.5t-6 93.5t2 105t2.5 96q0 110 -17 418h-8q-16 -290 -16 -418q0 -7 -0.5 -60
t0 -66t2.5 -60t6 -66t12 -58.5t19 -63t28 -54t39 -55.5z" />
    <glyph glyph-name="Uogonek" unicode="&#x172;" horiz-adv-x="1333" 
d="M1309 1327v-16q-58 0 -101 -41t-43 -105v-698q0 -199 -87 -315.5t-222 -151.5q-111 -59 -111 -184q0 -158 109 -158q25 0 50 11t38 21l12 11l13 -23q-6 -7 -18 -17t-55.5 -27t-94.5 -17q-92 0 -143.5 40.5t-51.5 121.5q0 132 160 205h-27q-571 0 -571 508v804l-121 15v16
h551v-16l-123 -15v-952q0 -154 65.5 -242t198.5 -88q54 0 106.5 13.5t105 46.5t92 83t64.5 130t25 180v698q0 64 -42.5 105t-100.5 41v16h322zM410 147l2 3q-26 31 -39.5 76t-22 151t-8.5 291q0 167 -20 520h-5q-20 -352 -20 -520q0 -136 8.5 -231t26.5 -150.5t34.5 -83.5
t43.5 -56z" />
    <glyph glyph-name="uogonek" unicode="&#x173;" horiz-adv-x="1269" 
d="M1231 1128v-16q-55 0 -88 -47.5t-33 -101.5v-566q0 -164 -78 -262.5t-201 -132.5q-112 -55 -112 -184q0 -158 108 -158q25 0 50.5 11t38.5 21l12 11l12 -22q-2 -3 -6.5 -7t-19.5 -14.5t-33 -19t-47.5 -15t-61.5 -6.5q-92 0 -143 40.5t-51 121.5q0 132 159 205h-30
q-125 0 -221.5 23.5t-157.5 63.5t-100 97t-54.5 118.5t-15.5 133.5v676l-115 14v16h539v-16l-117 -14v-828q0 -113 59.5 -183.5t182.5 -70.5q51 0 100 11.5t98.5 40t86.5 70.5t60 109t23 150v566q0 54 -33 101.5t-88 47.5v16h277zM397 123l6 4q-29 40 -46.5 85t-23 99.5
t-6 93.5t2 105t2.5 96q0 110 -17 418h-8q-16 -290 -16 -418q0 -7 -0.5 -60t0 -66t2.5 -60t6 -66t12 -58.5t19 -63t28 -54t39 -55.5z" />
    <glyph glyph-name="Wcircumflex" unicode="&#x174;" horiz-adv-x="1847" 
d="M936 1556l-250 -157h-24l184 278h178l184 -278h-24zM-55 1311v16h123l10 -31zM1888 1327v-16l-133 -15l-395 -1296h-227l-181 662l-213 -662h-227l-444 1327h448v-16l-121 -15l371 -1103l170 530l-158 573l-131 15v16h572v-16l-123 -15l288 -1097l254 852q17 55 17 106
q0 73 -52 113.5t-141 40.5v16h426zM621 147l2 3q-88 323 -158 528q-25 84 -98.5 268t-94.5 242h-2q124 -424 162 -529q43 -142 189 -512zM1243 147l2 3q-92 417 -123 526q-21 84 -81.5 268.5t-77.5 243.5h-2q10 -43 36 -157.5t48.5 -207.5t41.5 -161q17 -67 156 -515z" />
    <glyph glyph-name="wcircumflex" unicode="&#x175;" horiz-adv-x="1759" 
d="M899 1374l-250 -178h-24l204 299h138l204 -299h-24zM1800 1128v-16l-125 -10l-377 -1102h-225l-166 551l-194 -551h-228l-411 1100l-127 12v16h559v-16l-113 -14l348 -908h7l143 412l-148 496l-127 14v16h560v-16l-117 -14l268 -908h2l225 676q15 50 15 90
q0 68 -41.5 112t-134.5 44v16h407zM596 121h8q-111 342 -153 452q-72 189 -179 437h-8q12 -37 43 -136.5t55.5 -174t49.5 -138.5q35 -93 184 -440zM1188 121h8q-93 370 -119 452q-25 80 -151 437h-8q85 -339 120 -449q40 -128 150 -440z" />
    <glyph glyph-name="Ycircumflex" unicode="&#x176;" horiz-adv-x="1232" 
d="M643 1556l-250 -157h-24l184 278h178l184 -278h-24zM1253 1327v-16l-133 -15v2l-344 -727v-540l123 -15v-16h-553v16l123 15v540l-383 725l-135 15v16h575v-16l-114 -15l340 -667h16l184 391q41 90 41 178q0 46 -36 79.5t-101 33.5v16h397zM625 139q16 300 16 426
q-18 51 -160.5 310t-177.5 313h-4q7 -16 79 -164.5t139.5 -289.5t82.5 -175q0 -26 21 -420h4z" />
    <glyph glyph-name="ycircumflex" unicode="&#x177;" horiz-adv-x="1173" 
d="M598 1378l-250 -178h-24l204 299h138l204 -299h-24zM1067 1102l-319 -621v-454l116 -11v-16h-540v16l116 11v462l-358 613l-129 10v16h563v-16l-110 -10l319 -561h20l179 354q34 70 34 123q0 39 -31 66.5t-93 27.5v16h360v-16zM594 139q22 338 22 344q-6 18 -35.5 70.5
t-72 123t-80 130.5t-74.5 119t-39 63h-4q11 -25 130 -255.5t134 -262.5q0 -40 19 -332z" />
    <glyph glyph-name="Ydieresis" unicode="&#x178;" horiz-adv-x="1232" 
d="M469 1411q-48 0 -78.5 26.5t-30.5 75.5t30.5 77t78.5 28t78.5 -28t30.5 -77t-30.5 -75.5t-78.5 -26.5zM817 1411q-48 0 -78 26.5t-30 75.5t30.5 77t77.5 28q48 0 78.5 -28t30.5 -77t-30.5 -75.5t-78.5 -26.5zM1253 1327v-16l-133 -15v2l-344 -727v-540l123 -15v-16h-553
v16l123 15v540l-383 725l-135 15v16h575v-16l-114 -15l340 -667h16l184 391q41 90 41 178q0 46 -36 79.5t-101 33.5v16h397zM625 139q16 300 16 426q-18 51 -160.5 310t-177.5 313h-4q7 -16 79 -164.5t139.5 -289.5t82.5 -175q0 -26 21 -420h4z" />
    <glyph glyph-name="Zacute" unicode="&#x179;" horiz-adv-x="1165" 
d="M807 1640l-318 -239h-45l123 258h240v-19zM1094 387h18l-12 -387h-1032v20l688 1276h-301q-138 0 -238 -91t-119 -232l-4 -33h-18l12 387h999v-20l-679 -1276h329q137 0 235.5 90.5t117.5 232.5zM307 139q26 47 143.5 252.5t157.5 282.5q34 66 75 151.5t101 215t68 147.5
h-4q-199 -345 -289 -514q-130 -244 -256 -535h4z" />
    <glyph glyph-name="zacute" unicode="&#x17a;" horiz-adv-x="1118" 
d="M770 1462l-276 -260h-25l82 279h219v-19zM1026 350h18l-12 -350h-954v18l627 1084h-275q-132 0 -221 -84.5t-100 -214.5l-3 -25h-18l12 350h936v-18l-620 -1083h286q130 0 214.5 82.5t105.5 214.5zM545 575q-27 -46 -59 -106.5t-53.5 -101.5t-59 -115t-49.5 -98h8
q15 23 59.5 92.5t68.5 108t59.5 97.5t62.5 107q45 83 217 418h-8q-16 -25 -59.5 -92.5t-68 -106.5t-59 -97t-59.5 -106z" />
    <glyph glyph-name="Zdotaccent" unicode="&#x17b;" horiz-adv-x="1165" 
d="M567 1434q-48 0 -78 26.5t-30 75.5t30 76.5t78 27.5t78.5 -27.5t30.5 -76.5t-30.5 -75.5t-78.5 -26.5zM1094 387h18l-12 -387h-1032v20l688 1276h-301q-138 0 -238 -91t-119 -232l-4 -33h-18l12 387h999v-20l-679 -1276h329q137 0 235.5 90.5t117.5 232.5zM307 139
q26 47 143.5 252.5t157.5 282.5q34 66 75 151.5t101 215t68 147.5h-4q-199 -345 -289 -514q-130 -244 -256 -535h4z" />
    <glyph glyph-name="zdotaccent" unicode="&#x17c;" horiz-adv-x="1118" 
d="M571 1235q-48 0 -78 26.5t-30 75.5t30.5 77t77.5 28q48 0 78.5 -28t30.5 -77t-30.5 -75.5t-78.5 -26.5zM1026 350h18l-12 -350h-954v18l627 1084h-275q-132 0 -221 -84.5t-100 -214.5l-3 -25h-18l12 350h936v-18l-620 -1083h286q130 0 214.5 82.5t105.5 214.5zM545 575
q-27 -46 -59 -106.5t-53.5 -101.5t-59 -115t-49.5 -98h8q15 23 59.5 92.5t68.5 108t59.5 97.5t62.5 107q45 83 217 418h-8q-16 -25 -59.5 -92.5t-68 -106.5t-59 -97t-59.5 -106z" />
    <glyph glyph-name="Zcaron" unicode="&#x17d;" horiz-adv-x="1165" 
d="M657 1399h-178l-184 289h24l250 -168l248 168h25zM1094 387h18l-12 -387h-1032v20l688 1276h-301q-138 0 -238 -91t-119 -232l-4 -33h-18l12 387h999v-20l-679 -1276h329q137 0 235.5 90.5t117.5 232.5zM307 139q26 47 143.5 252.5t157.5 282.5q34 66 75 151.5t101 215
t68 147.5h-4q-199 -345 -289 -514q-130 -244 -256 -535h4z" />
    <glyph glyph-name="zcaron" unicode="&#x17e;" horiz-adv-x="1118" 
d="M639 1200h-137l-205 309h25l249 -188l248 188h25zM1026 350h18l-12 -350h-954v18l627 1084h-275q-132 0 -221 -84.5t-100 -214.5l-3 -25h-18l12 350h936v-18l-620 -1083h286q130 0 214.5 82.5t105.5 214.5zM545 575q-27 -46 -59 -106.5t-53.5 -101.5t-59 -115t-49.5 -98
h8q15 23 59.5 92.5t68.5 108t59.5 97.5t62.5 107q45 83 217 418h-8q-16 -25 -59.5 -92.5t-68 -106.5t-59 -97t-59.5 -106z" />
    <glyph glyph-name="uni01EA" unicode="&#x1ea;" horiz-adv-x="1482" 
d="M850 -8q-21 -8 -40 -21t-41 -35t-35 -57.5t-13 -79.5q0 -157 108 -157q25 0 50.5 11t38.5 21l12 11l12 -23q-6 -7 -18 -17t-55.5 -27t-94.5 -17q-92 0 -143 40t-51 121q0 47 20 86.5t53 66t63.5 42.5t63.5 27h-39q-155 0 -283.5 54.5t-211.5 148t-128.5 216.5t-45.5 261
t45.5 261t129 216t211.5 147.5t283 54.5t283 -54.5t211.5 -147.5t129.5 -216t46 -261q0 -169 -64.5 -311.5t-193.5 -240t-303 -120.5zM410 664q0 -148 17 -261.5t46 -186t71.5 -119t90.5 -65t106 -18.5t106 18.5t91 65t72 119t46 186t17 261.5t-17 261.5t-46.5 186
t-72.5 118.5t-90.5 64.5t-105.5 18.5t-105.5 -18.5t-90.5 -64.5t-72 -118.5t-46 -186t-17 -261.5zM422 147l2 3q-64 55 -119 194.5t-55 319.5t55 319.5t119 194.5l-2 2q-34 -27 -67.5 -67.5t-69.5 -103t-58 -153t-22 -192.5t22 -192.5t58 -153t69.5 -103.5t67.5 -68z
M1061 1180l-2 -2q64 -55 119 -194.5t55 -319.5t-55 -319.5t-119 -194.5l2 -3q34 27 67.5 68t69.5 103.5t58 153t22 192.5t-22 192.5t-58 153t-69.5 103t-67.5 67.5z" />
    <glyph glyph-name="uni01EB" unicode="&#x1eb;" horiz-adv-x="1415" 
d="M799 -10q-105 -58 -105 -180q0 -158 109 -158q25 0 50 11t37 21l13 11l12 -23q-6 -7 -17.5 -17t-55 -27t-94.5 -17q-92 0 -143.5 40.5t-51.5 121.5q0 140 178 213h-18q-151 0 -275 47.5t-203.5 127.5t-123 183.5t-43.5 218.5t43.5 219.5t123 185t203.5 128t275 47.5
q119 0 222 -31t178 -85.5t128.5 -127.5t80 -158.5t26.5 -177.5q0 -106 -36.5 -203t-104.5 -175t-173.5 -129.5t-234.5 -65.5zM406 563q0 -131 15.5 -229t42 -158t66.5 -96.5t83.5 -50t99.5 -13.5q67 0 117 23t92 81t64 169t22 274q0 132 -15 230t-40.5 158.5t-64.5 97
t-80.5 50t-94.5 13.5q-56 0 -99.5 -13.5t-83.5 -50t-66.5 -97t-42 -158.5t-15.5 -230zM401 150q-66 54 -109.5 164t-43.5 257q0 149 43.5 258.5t109.5 163.5l-2 2q-78 -55 -135 -160t-57 -264q0 -83 17.5 -155t47.5 -123t61 -86.5t66 -59.5zM1014 993q66 -54 109.5 -163.5
t43.5 -258.5q0 -147 -43.5 -257t-109.5 -164l2 -3q35 24 66 59.5t61 86.5t47.5 123t17.5 155q0 159 -57 264t-135 160z" />
    <glyph glyph-name="AEacute" unicode="&#x1fc;" horiz-adv-x="1904" 
d="M1548 1640l-317 -239h-45l123 258h239v-19zM1815 387h18l-12 -387h-1090v16l123 15v389h-496l-90 -146q-45 -73 -55 -106q-26 -71 10 -108t125 -37l-2 -23h-403v23l135 8l776 1253v12l-123 15v16h1041l12 -387h-19l-4 33q-19 145 -107.5 234t-223.5 89h-269v-624h160
q92 0 151.5 64.5t67.5 160.5l2 23h19v-523h-19l-2 23q-8 95 -67 158t-152 63h-160v-610h318q135 0 223.5 89.5t107.5 233.5zM377 451h477v774zM1012 139q20 363 20 525q0 161 -20 524h-4q-21 -381 -21 -524q0 -144 21 -525h4z" />
    <glyph glyph-name="aeacute" unicode="&#x1fd;" horiz-adv-x="1828" 
d="M1458 1462l-276 -260h-25l82 279h219v-19zM1696 350h18l-12 -350h-995v16l116 15v325h-481l-86 -123q-43 -62 -53 -90q-25 -60 9.5 -93.5t119.5 -33.5v-16h-393v16l135 19l749 1061v2l-116 14v16h970l13 -350h-19l-4 25q-23 132 -106.5 213.5t-212.5 81.5h-218v-533h107
q164 0 205 201l2 10h18v-452h-18l-2 12q-13 90 -64.5 144.5t-140.5 54.5h-107v-504h240q133 0 221 82t103 219zM362 387h461v660zM981 139q18 216 18 426q0 208 -18 424h-4q-19 -228 -19 -424q0 -198 19 -426h4z" />
    <glyph glyph-name="Oslashacute" unicode="&#x1fe;" horiz-adv-x="1484" 
d="M987 1640l-317 -239h-45l123 258h239v-19zM1108 1249q147 -88 226 -242.5t79 -342.5q0 -139 -44.5 -261.5t-127.5 -216t-210.5 -148t-282.5 -54.5q-187 0 -330 73l-64 -108l-26 14l63 109q-153 88 -236 245.5t-83 346.5q0 138 45.5 261t129.5 216t213.5 147.5t287.5 54.5
q185 0 333 -77l60 102l26 -14zM410 664q0 -295 63 -449l531 918q-77 180 -256 180q-61 0 -110 -18.5t-92.5 -64.5t-72.5 -118.5t-46 -186t-17 -261.5zM205 664q0 -102 22 -192.5t58 -153t69.5 -103.5t67.5 -68l2 3q-64 55 -119 194.5t-55 319.5t55 319.5t119 194.5l-2 2
q-34 -27 -67.5 -67.5t-69.5 -103t-58 -153t-22 -192.5zM1063 147q34 27 67.5 68t69.5 103.5t58 153t22 192.5q0 101 -22 190t-57.5 152t-68.5 103.5t-67 68.5l-2 -2q64 -60 118 -197.5t54 -314.5q0 -180 -55 -319.5t-119 -194.5zM748 14q58 0 105.5 18.5t89.5 64.5t70.5 119
t45 186.5t16.5 261.5q0 280 -57 434l-529 -918q80 -166 259 -166z" />
    <glyph glyph-name="oslashacute" unicode="&#x1ff;" horiz-adv-x="1415" 
d="M907 1462l-276 -260h-25l82 279h219v-19zM993 1092q168 -69 261.5 -212.5t93.5 -316.5q0 -115 -42.5 -218.5t-121 -183.5t-201 -127.5t-270.5 -47.5q-123 0 -228 30l-94 -200h-39l101 213q-183 64 -284 210t-101 324q0 115 43.5 219.5t123 185t203.5 128t275 47.5
q136 0 248 -39l71 149h39zM406 563q0 -313 90 -444l422 893q-65 100 -205 100q-56 0 -99.5 -13.5t-83.5 -50t-66.5 -97t-42 -158.5t-15.5 -230zM401 150q-66 54 -109.5 164t-43.5 257q0 149 43.5 258.5t109.5 163.5l-2 2q-78 -55 -135 -160t-57 -264q0 -83 17.5 -155
t47.5 -123t61 -86.5t66 -59.5zM1016 147q35 24 66 59.5t61 86.5t47.5 123t17.5 155q0 159 -57 264t-135 160l-2 -2q66 -54 109.5 -163.5t43.5 -258.5q0 -147 -43.5 -257t-109.5 -164zM713 16q67 0 117 23t92 81t64 169t22 274q0 281 -68 414l-420 -889q69 -72 193 -72z" />
    <glyph glyph-name="Scommaaccent" unicode="&#x218;" horiz-adv-x="1083" 
d="M352 1135q0 -49 22.5 -93t60.5 -79.5t87 -69.5t103.5 -67t109 -67t103.5 -74t87 -84t60.5 -101t22.5 -121q0 -178 -134 -286.5t-346 -108.5q-100 0 -205.5 22t-160.5 44l-56 22l-16 313h19l14 -51q14 -40 31.5 -76t52.5 -83t77.5 -80.5t108 -57t142.5 -23.5
q219 0 219 205q0 69 -36 127.5t-94 102t-128 85t-140 84.5t-128 90.5t-94 114t-36 144.5q0 85 29 152t75.5 108t110 68t126 37.5t130.5 10.5q97 0 188 -20.5t133 -40.5l42 -20l8 -310h-18l-9 43q-5 23 -12 45t-21 55t-31.5 61.5t-45 58t-59 50.5t-76 34.5t-95.5 13.5
q-107 0 -164 -45.5t-57 -132.5zM872 238q12 45 11.5 86t-9 74t-31 67.5t-46 60.5t-62.5 57.5t-72.5 55.5t-84.5 57q-33 22 -83 53.5t-76.5 49t-62.5 44t-54 48t-37 51t-26.5 64t-7.5 75.5h-4q-6 -41 -4.5 -74.5t12 -63t27 -54.5t40 -48.5t51.5 -44.5t61.5 -43.5t69.5 -45.5
q44 -28 67 -43q62 -42 96.5 -66.5t78.5 -60t66.5 -64t44 -66t28 -79t3.5 -90.5h4zM539 -98q37 0 69.5 -11.5t60.5 -36.5t44 -70t16 -106q0 -73 -21 -128.5t-50.5 -84.5t-67.5 -47.5t-64.5 -23t-48.5 -4.5v26q38 0 75 14.5t70.5 43.5t54.5 82t21 122q0 22 -4 54l-26 -4
q-10 -45 -45.5 -70t-83.5 -25q-59 0 -96 35.5t-37 98.5q0 64 37 99.5t96 35.5z" />
    <glyph glyph-name="scommaaccent" unicode="&#x219;" horiz-adv-x="1038" 
d="M352 977q0 -52 34 -98.5t88.5 -82.5t120.5 -72t132.5 -75t121 -82t88.5 -102.5t34 -128.5q0 -158 -127 -254t-328 -96q-96 0 -197.5 18.5t-155.5 37.5l-54 19l-17 281h19l12 -41q15 -38 49 -84t83.5 -92.5t119 -77.5t141.5 -31q102 0 151.5 38.5t49.5 119.5
q0 45 -21 84.5t-57 70.5t-82.5 59t-97.5 54.5t-102.5 53.5t-98 59t-82.5 67.5t-57 83t-21 101.5q0 78 28.5 139t73.5 97t106.5 59.5t121.5 32t125 8.5q90 0 178.5 -17.5t120 -29.5t45.5 -19l8 -291h-18l-6 29q-9 31 -24 65.5t-43 77.5t-63 76t-86 55.5t-108 22.5
q-205 0 -205 -135zM819 209q10 35 10 68t-8.5 60.5t-27.5 55.5t-41.5 51t-56.5 49t-66 47t-76 48q-30 18 -84.5 50t-77 46.5t-57.5 42t-49 49.5t-25.5 55.5t-11.5 73.5h-4q-5 -26 -4.5 -49.5t4 -43t14 -38.5t20.5 -33.5t29 -31.5t34.5 -29.5t41.5 -29.5t45 -28.5t50.5 -31
t53.5 -33.5q80 -49 124.5 -80.5t87.5 -74.5t59 -89t12 -104h4zM520 -98q37 0 69.5 -11.5t60.5 -36.5t44.5 -70t16.5 -106q0 -73 -21 -128.5t-50.5 -84.5t-67.5 -47.5t-64.5 -23t-48.5 -4.5v26q38 0 75 14.5t70.5 43.5t54.5 82t21 122q0 22 -4 54l-27 -4q-10 -45 -45.5 -70
t-83.5 -25q-59 0 -96 35.5t-37 98.5q0 64 37 99.5t96 35.5z" />
    <glyph glyph-name="uni021A" unicode="&#x21a;" horiz-adv-x="1273" 
d="M1227 1327l12 -387h-18l-4 33q-19 145 -107.5 234t-224.5 89h-94v-1265l122 -15v-16h-553v16l123 15v1265h-94q-135 0 -224 -89.5t-108 -233.5l-4 -33h-18l12 387h1180zM639 139q20 363 20 525q0 161 -20 524h-4q-21 -381 -21 -524q0 -144 21 -525h4zM629 -98
q37 0 69.5 -11.5t60.5 -36.5t44 -70t16 -106q0 -73 -21 -128.5t-50.5 -84.5t-67.5 -47.5t-64.5 -23t-48.5 -4.5v26q38 0 75 14.5t70.5 43.5t54.5 82t21 122q0 22 -4 54l-26 -4q-10 -45 -45.5 -70t-83.5 -25q-59 0 -96 35.5t-37 98.5q0 64 37 99.5t96 35.5z" />
    <glyph glyph-name="uni021B" unicode="&#x21b;" horiz-adv-x="1218" 
d="M1171 1128l13 -350h-19l-4 25q-23 132 -106.5 213.5t-214.5 81.5h-78v-1067l117 -15v-16h-541v16l117 15v1067h-78q-130 0 -213.5 -81.5t-106.5 -213.5l-4 -25h-18l12 350h1124zM610 139q19 228 19 426q0 196 -19 424h-4q-18 -216 -18 -424q0 -210 18 -426h4zM600 -98
q37 0 69.5 -11.5t60.5 -36.5t44.5 -70t16.5 -106q0 -73 -21 -128.5t-50.5 -84.5t-67.5 -47.5t-64.5 -23t-48.5 -4.5v26q38 0 75 14.5t70.5 43.5t54.5 82t21 122q0 22 -4 54l-27 -4q-10 -45 -45.5 -70t-83.5 -25q-59 0 -96 35.5t-37 98.5q0 64 37 99.5t96 35.5z" />
    <glyph glyph-name="uni0237" unicode="&#x237;" horiz-adv-x="811" 
d="M764 1128v-22l-117 -8v-756q0 -73 -18.5 -133.5t-60 -112t-118 -81t-182.5 -29.5q-108 0 -178 54.5t-72 125.5v2q0 47 34.5 83t82.5 36q50 0 84.5 -36t34.5 -83t-34.5 -82t-84.5 -35h-6v-2q54 -33 125 -33q42 0 63 21t21 49v1012l-115 8v22h541zM442 147q35 42 54.5 167
t19.5 251q0 203 -18 424h-4q-19 -233 -19 -424q0 -247 -10 -323q-8 -67 -25 -92z" />
    <glyph glyph-name="circumflex" unicode="&#x2c6;" 
d="M586 942l-248 178l-250 -178h-25l205 299h138l204 -299h-24z" />
    <glyph glyph-name="caron" unicode="&#x2c7;" 
d="M586 1251h24l-204 -309h-138l-205 309h25l250 -188z" />
    <glyph glyph-name="breve" unicode="&#x2d8;" 
d="M502 1262q1 -143 -61 -220t-160 -77q-99 0 -159 72t-59 225h27q0 -63 46 -105.5t145 -42.5q100 0 147 43t47 105h27z" />
    <glyph glyph-name="dotaccent" unicode="&#x2d9;" 
d="M61 1030q0 49 30.5 77t78.5 28t78.5 -28t30.5 -77t-30.5 -75.5t-78.5 -26.5t-78.5 26.5t-30.5 75.5z" />
    <glyph glyph-name="ring" unicode="&#x2da;" 
d="M297 985q-103 0 -159 51.5t-56 139.5q0 86 56 137t159 51t159 -51t56 -137q0 -88 -56 -139.5t-159 -51.5zM297 1014q37 0 56.5 44t19.5 118t-19.5 116.5t-56.5 42.5q-76 0 -76 -159q0 -162 76 -162z" />
    <glyph glyph-name="ogonek" unicode="&#x2db;" 
d="M424 -326q-6 -7 -18 -17t-55.5 -27t-94.5 -17q-92 0 -143.5 40.5t-51.5 121.5q0 53 26.5 96.5t64 68.5t75 42.5t63.5 23.5l27 6h45q-6 -1 -17 -4t-38.5 -17t-48.5 -34t-38 -58.5t-17 -86.5q0 -158 108 -158q25 0 50.5 11t38.5 21l12 11z" />
    <glyph glyph-name="tilde" unicode="&#x2dc;" 
d="M61 993q2 7 6.5 19.5t21 44t36 55.5t52 44t69.5 20q36 0 74.5 -19.5t66.5 -43t63 -43t64 -19.5q20 0 38 7t30 16.5t21.5 19.5t13.5 17l4 7l16 -10q-2 -7 -6.5 -19.5t-20.5 -43.5t-35 -54.5t-52 -43t-70 -19.5q-39 0 -77 19t-63.5 41.5t-59 41.5t-65.5 19q-34 0 -61.5 -16
t-38.5 -32l-10 -16z" />
    <glyph glyph-name="hungarumlaut" unicode="&#x2dd;" 
d="M102 942l82 279h219v-19l-276 -260h-25zM449 942l81 279h220v-19l-277 -260h-24z" />
    <glyph glyph-name="Wgrave" unicode="&#x1e80;" horiz-adv-x="1847" 
d="M1061 1401h-45l-318 239v19h240zM-55 1311v16h123l10 -31zM1888 1327v-16l-133 -15l-395 -1296h-227l-181 662l-213 -662h-227l-444 1327h448v-16l-121 -15l371 -1103l170 530l-158 573l-131 15v16h572v-16l-123 -15l288 -1097l254 852q17 55 17 106q0 73 -52 113.5
t-141 40.5v16h426zM621 147l2 3q-88 323 -158 528q-25 84 -98.5 268t-94.5 242h-2q124 -424 162 -529q43 -142 189 -512zM1243 147l2 3q-92 417 -123 526q-21 84 -81.5 268.5t-77.5 243.5h-2q10 -43 36 -157.5t48.5 -207.5t41.5 -161q17 -67 156 -515z" />
    <glyph glyph-name="wgrave" unicode="&#x1e81;" horiz-adv-x="1759" 
d="M987 1198h-24l-277 260v19h219zM1800 1128v-16l-125 -10l-377 -1102h-225l-166 551l-194 -551h-228l-411 1100l-127 12v16h559v-16l-113 -14l348 -908h7l143 412l-148 496l-127 14v16h560v-16l-117 -14l268 -908h2l225 676q15 50 15 90q0 68 -41.5 112t-134.5 44v16h407z
M596 121h8q-111 342 -153 452q-72 189 -179 437h-8q12 -37 43 -136.5t55.5 -174t49.5 -138.5q35 -93 184 -440zM1188 121h8q-93 370 -119 452q-25 80 -151 437h-8q85 -339 120 -449q40 -128 150 -440z" />
    <glyph glyph-name="Wacute" unicode="&#x1e82;" horiz-adv-x="1847" 
d="M1176 1640l-318 -239h-45l123 258h240v-19zM-55 1311v16h123l10 -31zM1888 1327v-16l-133 -15l-395 -1296h-227l-181 662l-213 -662h-227l-444 1327h448v-16l-121 -15l371 -1103l170 530l-158 573l-131 15v16h572v-16l-123 -15l288 -1097l254 852q17 55 17 106
q0 73 -52 113.5t-141 40.5v16h426zM621 147l2 3q-88 323 -158 528q-25 84 -98.5 268t-94.5 242h-2q124 -424 162 -529q43 -142 189 -512zM1243 147l2 3q-92 417 -123 526q-21 84 -81.5 268.5t-77.5 243.5h-2q10 -43 36 -157.5t48.5 -207.5t41.5 -161q17 -67 156 -515z" />
    <glyph glyph-name="wacute" unicode="&#x1e83;" horiz-adv-x="1759" 
d="M1098 1458l-277 -260h-24l82 279h219v-19zM1800 1128v-16l-125 -10l-377 -1102h-225l-166 551l-194 -551h-228l-411 1100l-127 12v16h559v-16l-113 -14l348 -908h7l143 412l-148 496l-127 14v16h560v-16l-117 -14l268 -908h2l225 676q15 50 15 90q0 68 -41.5 112
t-134.5 44v16h407zM596 121h8q-111 342 -153 452q-72 189 -179 437h-8q12 -37 43 -136.5t55.5 -174t49.5 -138.5q35 -93 184 -440zM1188 121h8q-93 370 -119 452q-25 80 -151 437h-8q85 -339 120 -449q40 -128 150 -440z" />
    <glyph glyph-name="Wdieresis" unicode="&#x1e84;" horiz-adv-x="1847" 
d="M762 1411q-48 0 -78.5 26.5t-30.5 75.5t30.5 77t78.5 28q47 0 77.5 -28t30.5 -77t-30 -75.5t-78 -26.5zM1110 1411q-48 0 -78.5 26.5t-30.5 75.5t30.5 77t78.5 28t78.5 -28t30.5 -77t-30.5 -75.5t-78.5 -26.5zM-55 1311v16h123l10 -31zM1888 1327v-16l-133 -15
l-395 -1296h-227l-181 662l-213 -662h-227l-444 1327h448v-16l-121 -15l371 -1103l170 530l-158 573l-131 15v16h572v-16l-123 -15l288 -1097l254 852q17 55 17 106q0 73 -52 113.5t-141 40.5v16h426zM621 147l2 3q-88 323 -158 528q-25 84 -98.5 268t-94.5 242h-2
q124 -424 162 -529q43 -142 189 -512zM1243 147l2 3q-92 417 -123 526q-21 84 -81.5 268.5t-77.5 243.5h-2q10 -43 36 -157.5t48.5 -207.5t41.5 -161q17 -67 156 -515z" />
    <glyph glyph-name="wdieresis" unicode="&#x1e85;" horiz-adv-x="1759" 
d="M725 1208q-48 0 -78.5 27t-30.5 76t30.5 76.5t78.5 27.5t78.5 -27.5t30.5 -76.5t-30.5 -76t-78.5 -27zM1073 1208q-48 0 -78 27t-30 76t30 76.5t78 27.5t78.5 -27.5t30.5 -76.5t-30.5 -76t-78.5 -27zM1800 1128v-16l-125 -10l-377 -1102h-225l-166 551l-194 -551h-228
l-411 1100l-127 12v16h559v-16l-113 -14l348 -908h7l143 412l-148 496l-127 14v16h560v-16l-117 -14l268 -908h2l225 676q15 50 15 90q0 68 -41.5 112t-134.5 44v16h407zM596 121h8q-111 342 -153 452q-72 189 -179 437h-8q12 -37 43 -136.5t55.5 -174t49.5 -138.5
q35 -93 184 -440zM1188 121h8q-93 370 -119 452q-25 80 -151 437h-8q85 -339 120 -449q40 -128 150 -440z" />
    <glyph glyph-name="Ygrave" unicode="&#x1ef2;" horiz-adv-x="1232" 
d="M754 1401h-45l-318 239v19h240zM1253 1327v-16l-133 -15v2l-344 -727v-540l123 -15v-16h-553v16l123 15v540l-383 725l-135 15v16h575v-16l-114 -15l340 -667h16l184 391q41 90 41 178q0 46 -36 79.5t-101 33.5v16h397zM625 139q16 300 16 426q-18 51 -160.5 310
t-177.5 313h-4q7 -16 79 -164.5t139.5 -289.5t82.5 -175q0 -26 21 -420h4z" />
    <glyph glyph-name="ygrave" unicode="&#x1ef3;" horiz-adv-x="1173" 
d="M686 1202h-24l-277 260v19h219zM1067 1102l-319 -621v-454l116 -11v-16h-540v16l116 11v462l-358 613l-129 10v16h563v-16l-110 -10l319 -561h20l179 354q34 70 34 123q0 39 -31 66.5t-93 27.5v16h360v-16zM594 139q22 338 22 344q-6 18 -35.5 70.5t-72 123t-80 130.5
t-74.5 119t-39 63h-4q11 -25 130 -255.5t134 -262.5q0 -40 19 -332z" />
    <glyph glyph-name="uni1EF8" unicode="&#x1ef8;" horiz-adv-x="1232" 
d="M481 1516q-34 0 -61.5 -16t-37.5 -32l-11 -16l-17 8q2 7 6.5 19.5t21 44t36 55.5t52 43.5t69.5 19.5q36 0 74.5 -19.5t66.5 -42.5t63 -42.5t64 -19.5q31 0 57.5 17t37.5 33l11 17l17 -10q-2 -7 -6.5 -19.5t-20.5 -43.5t-35.5 -54.5t-52.5 -43t-70 -19.5q-39 0 -77 19
t-63 41.5t-58.5 41.5t-65.5 19zM1253 1327v-16l-133 -15v2l-344 -727v-540l123 -15v-16h-553v16l123 15v540l-383 725l-135 15v16h575v-16l-114 -15l340 -667h16l184 391q41 90 41 178q0 46 -36 79.5t-101 33.5v16h397zM625 139q16 300 16 426q-18 51 -160.5 310t-177.5 313
h-4q7 -16 79 -164.5t139.5 -289.5t82.5 -175q0 -26 21 -420h4z" />
    <glyph glyph-name="uni1EF9" unicode="&#x1ef9;" horiz-adv-x="1173" 
d="M436 1317q-34 0 -61.5 -16t-38.5 -32l-10 -16l-17 9q2 7 6.5 19.5t21 44t36 55.5t52 43.5t69.5 19.5q36 0 74.5 -19.5t66.5 -43t63 -43t64 -19.5q20 0 38 7t30 16.5t21 19.5t13 17l4 7l17 -10q-2 -7 -6.5 -19.5t-20.5 -43.5t-35.5 -54.5t-52.5 -43t-70 -19.5
q-39 0 -77 19t-63 41.5t-58.5 41.5t-65.5 19zM1067 1102l-319 -621v-454l116 -11v-16h-540v16l116 11v462l-358 613l-129 10v16h563v-16l-110 -10l319 -561h20l179 354q34 70 34 123q0 39 -31 66.5t-93 27.5v16h360v-16zM594 139q22 338 22 344q-6 18 -35.5 70.5t-72 123
t-80 130.5t-74.5 119t-39 63h-4q11 -25 130 -255.5t134 -262.5q0 -40 19 -332z" />
    <glyph glyph-name="endash" unicode="&#x2013;" horiz-adv-x="1134" 
d="M102 547h930v-31h-930v31z" />
    <glyph glyph-name="emdash" unicode="&#x2014;" horiz-adv-x="1652" 
d="M102 547h1448v-31h-1448v31z" />
    <glyph glyph-name="quoteleft" unicode="&#x2018;" horiz-adv-x="516" 
d="M293 1077q69 0 112.5 -38.5t43.5 -108.5t-44 -110t-112 -40q-91 0 -151 59.5t-60 194.5q0 85 22.5 148t52 94.5t70.5 50.5t66.5 23t50.5 4v-27q-40 0 -78 -15.5t-73.5 -47.5t-57.5 -91.5t-22 -138.5q0 -58 16 -104l8 2q0 68 44 106.5t112 38.5z" />
    <glyph glyph-name="quoteright" unicode="&#x2019;" horiz-adv-x="514" 
d="M225 1348q91 0 151 -59.5t60 -194.5q0 -85 -22.5 -148t-52 -94.5t-70.5 -50.5t-66.5 -23t-50.5 -4v27q40 0 78.5 15.5t74 47.5t57.5 91.5t22 138.5q0 55 -17 104l-8 -2q0 -68 -44 -106.5t-112 -38.5t-111.5 38.5t-43.5 108.5t43.5 110t111.5 40z" />
    <glyph glyph-name="quotesinglbase" unicode="&#x201a;" horiz-adv-x="528" 
d="M240 281q91 0 151 -59.5t60 -194.5q0 -85 -22.5 -148t-52.5 -94.5t-70.5 -50.5t-66.5 -23t-51 -4v27q40 0 78.5 15.5t74 47.5t57.5 91.5t22 138.5q0 55 -17 104l-8 -2q0 -68 -43.5 -106.5t-111.5 -38.5q-69 0 -112.5 38.5t-43.5 108.5t44 110t112 40z" />
    <glyph glyph-name="quotedblleft" unicode="&#x201c;" horiz-adv-x="958" 
d="M293 1077q69 0 112.5 -38.5t43.5 -108.5t-44 -110t-112 -40q-91 0 -151 59.5t-60 194.5q0 85 22.5 148t52 94.5t70.5 50.5t66.5 23t50.5 4v-27q-40 0 -78 -15.5t-73.5 -47.5t-57.5 -91.5t-22 -138.5q0 -58 16 -104l8 2q0 68 44 106.5t112 38.5zM735 1077
q69 0 112.5 -38.5t43.5 -108.5t-44 -110t-112 -40q-91 0 -151 59.5t-60 194.5q0 85 22.5 148t52 94.5t70.5 50.5t66.5 23t50.5 4v-27q-40 0 -78 -15.5t-73.5 -47.5t-57.5 -91.5t-22 -138.5q0 -58 16 -104l9 2q0 68 43.5 106.5t111.5 38.5z" />
    <glyph glyph-name="quotedblright" unicode="&#x201d;" horiz-adv-x="956" 
d="M225 1348q91 0 151 -59.5t60 -194.5q0 -85 -22.5 -148t-52 -94.5t-70.5 -50.5t-66.5 -23t-50.5 -4v27q40 0 78.5 15.5t74 47.5t57.5 91.5t22 138.5q0 55 -17 104l-8 -2q0 -68 -44 -106.5t-112 -38.5t-111.5 38.5t-43.5 108.5t43.5 110t111.5 40zM668 1348q91 0 151 -59.5
t60 -194.5q0 -85 -22.5 -148t-52.5 -94.5t-70.5 -50.5t-66.5 -23t-51 -4v27q40 0 78.5 15.5t74 47.5t57.5 91.5t22 138.5q0 55 -17 104l-8 -2q0 -68 -43.5 -106.5t-111.5 -38.5q-69 0 -112.5 38.5t-43.5 108.5t44 110t112 40z" />
    <glyph glyph-name="quotedblbase" unicode="&#x201e;" horiz-adv-x="970" 
d="M240 281q91 0 151 -59.5t60 -194.5q0 -85 -22.5 -148t-52.5 -94.5t-70.5 -50.5t-66.5 -23t-51 -4v27q40 0 78.5 15.5t74 47.5t57.5 91.5t22 138.5q0 55 -17 104l-8 -2q0 -68 -43.5 -106.5t-111.5 -38.5q-69 0 -112.5 38.5t-43.5 108.5t44 110t112 40zM682 281
q91 0 151 -59.5t60 -194.5q0 -85 -22.5 -148t-52 -94.5t-70.5 -50.5t-66.5 -23t-50.5 -4v27q40 0 78 15.5t73.5 47.5t57.5 91.5t22 138.5q0 58 -16 104l-8 -2q0 -68 -44 -106.5t-112 -38.5q-69 0 -112.5 38.5t-43.5 108.5t44 110t112 40z" />
    <glyph glyph-name="dagger" unicode="&#x2020;" horiz-adv-x="1280" 
d="M1051 1063q72 0 117.5 -36t45.5 -99q0 -65 -46 -102t-119 -35q-61 0 -203 55.5t-187 60.5v-41q0 -42 30.5 -126t60.5 -147l30 -63q-14 -82 -34 -211.5t-53.5 -410.5t-33.5 -420h-34q0 139 -29.5 399.5t-59.5 451.5l-30 191q13 27 33 70t53 133.5t33 132.5v43
q-44 -5 -187 -61.5t-205 -56.5q-73 -2 -119 35t-46 102q-1 63 44.5 99t118.5 36q61 0 205 -57t189 -62v23q0 49 -59.5 198t-59.5 211q0 73 37 119.5t100 46.5t100 -46.5t37 -119.5q0 -62 -60.5 -211t-60.5 -198v-21q45 5 188 61t204 56z" />
    <glyph glyph-name="daggerdbl" unicode="&#x2021;" horiz-adv-x="1280" 
d="M1049 223q73 2 119 -35t46 -102q0 -63 -45.5 -99t-117.5 -36q-61 0 -204 56t-188 61v-21q0 -49 60.5 -198t60.5 -211q0 -73 -37 -119.5t-100 -46.5t-100 46.5t-37 119.5q0 62 59.5 211t59.5 198v23q-45 -5 -189 -62t-205 -57q-73 0 -118.5 36t-44.5 99q0 65 46 102
t119 35q62 0 205 -57t187 -62v70q0 41 -29.5 125t-59.5 147l-30 64q13 27 33 70t53 134t33 132v63q-44 -5 -187 -61.5t-205 -56.5q-73 -2 -119 35t-46 102q-1 63 44.5 99t118.5 36q61 0 205 -57t189 -62v23q0 49 -59.5 198t-59.5 211q0 73 37 119.5t100 46.5t100 -46.5
t37 -119.5q0 -62 -60.5 -211t-60.5 -198v-21q45 5 188 61t204 56q72 0 117.5 -36t45.5 -99q0 -65 -46 -102t-119 -35q-61 0 -203 55.5t-187 60.5v-61q0 -41 30.5 -125t60.5 -147l30 -64q-14 -27 -34 -70t-53.5 -134t-33.5 -132v-68q45 5 187 61t203 56z" />
    <glyph glyph-name="bullet" unicode="&#x2022;" horiz-adv-x="706" 
d="M137 504q0 91 63 154t154 63q89 0 152 -63t63 -154q0 -89 -63 -152t-152 -63q-91 0 -154 63t-63 152z" />
    <glyph glyph-name="ellipsis" unicode="&#x2026;" horiz-adv-x="1245" 
d="M84 131q0 70 44 110t112 40t111.5 -40t43.5 -110t-43.5 -108.5t-111.5 -38.5q-69 0 -112.5 38.5t-43.5 108.5zM467 131q0 70 44 110t112 40t111.5 -40t43.5 -110t-43.5 -108.5t-111.5 -38.5q-69 0 -112.5 38.5t-43.5 108.5zM850 131q0 70 44 110t112 40t111.5 -40
t43.5 -110t-43.5 -108.5t-111.5 -38.5q-69 0 -112.5 38.5t-43.5 108.5z" />
    <glyph glyph-name="perthousand" unicode="&#x2030;" horiz-adv-x="2463" 
d="M752 977q0 -153 -93.5 -260t-252.5 -107q-107 0 -187 51.5t-120 134t-40 181.5q0 153 93.5 259.5t253.5 106.5q107 0 187 -51.5t119.5 -133.5t39.5 -181zM1139 1343h39l-648 -1343h-38zM406 641q118 0 118 336t-118 336q-119 0 -119 -336t119 -336zM236 1231v2
q-19 -19 -36.5 -46t-35 -85t-17.5 -125q0 -94 28.5 -158t60.5 -96v2q-22 27 -39 98.5t-17 153.5q0 83 17 155t39 99zM575 723q33 31 61 95t28 159q0 97 -28 161t-61 95v-2q23 -26 39.5 -97.5t16.5 -156.5q0 -83 -16.5 -154.5t-39.5 -97.5v-2zM1253 717q159 0 252.5 -107
t93.5 -260q0 -99 -39.5 -181t-119.5 -133.5t-187 -51.5t-187 51.5t-119.5 133.5t-39.5 181q0 153 93.5 260t252.5 107zM2058 717q159 0 252.5 -107t93.5 -260q0 -99 -39.5 -181t-119.5 -133.5t-187 -51.5t-187 51.5t-119.5 133.5t-39.5 181q0 153 93.5 260t252.5 107z
M1253 14q119 0 119 336t-119 336q-118 0 -118 -336t118 -336zM2058 14q119 0 119 336t-119 336t-119 -336t119 -336zM1083 604v2q-32 -32 -60 -95.5t-28 -160.5q0 -94 28 -158t60 -96v2q-22 26 -38.5 98t-16.5 154q0 84 16.5 156t38.5 98zM1423 96q32 30 60 94.5t28 159.5
q0 97 -27.5 161t-60.5 95v-2q23 -26 39.5 -97.5t16.5 -156.5q0 -83 -16.5 -154.5t-39.5 -97.5v-2zM1888 604v2q-32 -32 -60 -95.5t-28 -160.5q0 -94 28 -158t60 -96v2q-22 26 -38.5 98t-16.5 154q0 84 16.5 156t38.5 98zM2228 96q32 30 60 94.5t28 159.5q0 97 -27.5 161
t-60.5 95v-2q23 -26 39.5 -97.5t16.5 -156.5q0 -83 -16.5 -154.5t-39.5 -97.5v-2z" />
    <glyph glyph-name="guilsinglleft" unicode="&#x2039;" horiz-adv-x="622" 
d="M496 184l-422 328v39l422 328v-25l-174 -322l174 -321v-27z" />
    <glyph glyph-name="guilsinglright" unicode="&#x203a;" horiz-adv-x="622" 
d="M127 211l174 321l-174 322v25l422 -328v-39l-422 -328v27z" />
    <glyph glyph-name="fraction" unicode="&#x2044;" horiz-adv-x="571" 
d="M543 1438h39l-555 -1438h-39z" />
    <glyph glyph-name="Euro" unicode="&#x20ac;" horiz-adv-x="1382" 
d="M1264 324h30q-7 -60 -34 -117t-74.5 -108.5t-125.5 -83t-175 -31.5q-145 0 -262.5 39.5t-197.5 110t-130.5 162.5t-71.5 204h-162l11 30h147q-10 72 -10 134q0 43 2 63h-150l11 31h141q13 125 60.5 228.5t128.5 184.5t207 126.5t286 45.5q63 0 123 -10t101 -24t72.5 -28
t46.5 -24l15 -10l15 -305h-23l-8 41q-4 23 -17.5 58.5t-42.5 84.5t-66 89.5t-94 69t-122 28.5q-59 0 -107.5 -16t-91.5 -55.5t-73 -102t-49.5 -159t-24.5 -222.5h330l-11 -31h-321v-63q0 -52 4 -134h242l-11 -30h-229q11 -137 39.5 -233.5t73.5 -150.5t98 -78t121 -24
q71 0 132.5 19.5t103.5 51t73 73t47.5 83t22.5 83.5zM563 147l2 3q-64 55 -119 194.5t-55 319.5t55 319.5t119 194.5l-2 2q-34 -27 -67.5 -67.5t-69.5 -103t-58 -153t-22 -192.5t22 -192.5t58 -153t69.5 -103.5t67.5 -68z" />
    <glyph glyph-name="trademark" unicode="&#x2122;" horiz-adv-x="1785" 
d="M1679 1305l-73 -7v-632l73 -7v-22h-331v22l73 7v579h-2l-256 -614h-22l-287 629h-4v-551q0 -21 19 -35.5t55 -14.5v-22h-179v22q36 0 55 14.5t19 35.5v407q0 79 -56 130.5t-140 51.5h-88v-632l94 -7v-22h-373v22l94 7v632h-55q-82 0 -136.5 -51t-60.5 -131v-20h-24l6 231
h921l230 -457h6l184 457h258v-22zM1042 1018q19 -41 36.5 -73t43.5 -78t43 -76l4 2q-15 34 -33.5 80t-33.5 80t-35 75q-17 36 -34 66t-42 74t-43 77l-2 -2q72 -177 96 -225zM444 731q2 41 6 89t6.5 86t2.5 83q0 51 -6.5 131.5t-8.5 114.5h-4q-2 -40 -6 -88t-6 -83.5
t-2 -74.5q0 -45 2 -82.5t6 -86.5t6 -89h4zM1518 731q2 40 6 89t6 86.5t2 82.5q0 39 -2 74.5t-6 83.5t-6 88h-5q-2 -40 -6 -88t-6 -83.5t-2 -74.5q0 -45 2 -82.5t6 -86.5t6 -89h5z" />
    <glyph glyph-name="minus" unicode="&#x2212;" horiz-adv-x="913" 
d="M117 547h680v-31h-680v31z" />
    <glyph glyph-name="approxequal" unicode="&#x2248;" horiz-adv-x="970" 
d="M117 567q2 6 7 16.5t23.5 36.5t41 46t61 36.5t82.5 16.5q62 0 127.5 -26.5t127.5 -52.5t115 -26q39 0 73.5 19.5t49.5 38.5l15 20l16 -10q-2 -6 -7 -16t-23.5 -36t-40.5 -46t-61 -36t-83 -16q-53 0 -104.5 16t-86.5 34.5t-83 34.5t-93 16q-42 0 -77 -18.5t-49 -36.5
l-15 -19zM117 297q2 6 7 16.5t23.5 36.5t41 46t61 36.5t82.5 16.5q62 0 127.5 -26.5t127.5 -52.5t115 -26q39 0 73.5 19.5t49.5 38.5l15 20l16 -10q-2 -6 -7 -16t-23.5 -36t-40.5 -46t-61 -36t-83 -16q-53 0 -104.5 15.5t-86.5 34.5t-83 34.5t-93 15.5q-26 0 -50.5 -7.5
t-40 -18t-27.5 -21.5t-18 -19l-5 -7z" />
    <glyph glyph-name="notequal" unicode="&#x2260;" horiz-adv-x="989" 
d="M866 633h-334l-118 -314h452v-30h-465l-67 -178h-39l67 178h-247v30h260l119 314h-379v31h391l110 288h39l-110 -288h321v-31z" />
    <glyph glyph-name="uniF8FF" unicode="&#xf8ff;" horiz-adv-x="2971" 
d="M1415 1194q0 54 36 90.5t89 36.5q54 0 90.5 -36.5t36.5 -90.5q0 -53 -36.5 -89t-90.5 -36q-52 0 -88.5 36.5t-36.5 88.5zM449 553h-244q0 274 18 643h205q1 -10 4 -65t5.5 -108t5.5 -128t4.5 -164t1.5 -178zM1421 553q0 187 6 301h-124l6 -133q8 -8 30 -8q27 0 37 10
v-152q-26 -30 -139 -30q-168 0 -168 135q0 25 4 100.5t4 77.5h-45v162l244 61l2 -35h364q21 -138 21 -489h-242zM672 543q-90 0 -139.5 58t-49.5 175q0 133 68.5 205t206.5 72q128 0 191 -62t63 -178v-260h-170l-17 125q-13 -67 -48 -101t-105 -34zM2232 553h-233
q0 54 2 115t2 75q0 33 -6 46.5t-25 13.5q-23 0 -30 -15t-7 -45q0 -14 3.5 -75t3.5 -115h-234q0 351 21 489h163q13 -97 13 -155q2 20 9 42t23 53t50 51t81 20q87 0 121 -51t37 -166zM2767 801q0 -125 -62 -191.5t-190 -66.5q-127 0 -188.5 66.5t-61.5 187.5q0 53 12 96
t39 80.5t79 58.5t124 21q248 0 248 -252zM799 768q0 53 -49 53q-24 0 -34.5 -12t-10.5 -41q0 -61 45 -61q49 0 49 61zM2562 768q0 53 -47 53q-22 0 -32.5 -12t-10.5 -41q0 -61 43 -61q22 0 34.5 16t12.5 45zM877 487h213q20 -107 20 -282q0 -166 -68.5 -236.5t-242.5 -70.5
q-127 0 -181 34v170q48 -32 144 -32q43 0 69.5 12.5t33.5 24t7 20.5q-35 -23 -100 -23q-184 0 -184 170v27h-113l6 -133q12 -8 31 -8q27 0 37 10v-150q-37 -30 -139 -30q-91 0 -128.5 34.5t-37.5 110.5q0 79 6 166h-37v164l240 59l-2 -37h362v-243q0 -33 6 -44.5t25 -11.5
t26 12.5t7 43.5v243zM1501 498q76 0 120 -60t44 -172q0 -276 -281 -276q2 -31 2 -80h-243q0 292 20 577h160q14 -87 14 -155q3 16 7 29.5t16.5 41t28.5 46.5t46 34t66 15zM2191 260q0 -45 -6 -72h-254q23 -36 103 -36q68 0 112 24v-153q-47 -33 -159 -33q-289 0 -289 250
q0 121 67 189.5t189 68.5q113 0 175 -61.5t62 -176.5zM2003 223q6 56 -35 56q-47 0 -47 -56h82zM1372 147q11 0 26.5 5t32.5 24t17 47q0 47 -41 47q-45 0 -45 -63q0 -30 10 -60zM2200 27q0 -22 13.5 -34.5t35.5 -12.5t35.5 12.5t13.5 34.5t-13.5 34.5t-35.5 12.5
t-35.5 -12.5t-13.5 -34.5zM2212 27q0 36 37 36t37 -36q0 -37 -37 -37t-37 37zM2269 4l-12 19q14 0 14 14t-20 14h-23v-47h10v19h11l8 -19h12zM2253 31h-15v12h15q8 0 8 -6t-8 -6z" />
    <glyph glyph-name="i.loclTRK" horiz-adv-x="688" 
d="M342 1235q-48 0 -78.5 26.5t-30.5 75.5t30.5 77t78.5 28t78.5 -28t30.5 -77t-30.5 -75.5t-78.5 -26.5zM614 1112l-116 -14v-1067l116 -15v-16h-540v16l116 15v1067l-116 14v16h540v-16zM346 139q19 228 19 426q0 196 -19 424h-4q-18 -216 -18 -424q0 -210 18 -426h4z" />
    <glyph glyph-name="zero.osf" horiz-adv-x="1245" 
d="M623 -12q-125 0 -229 46.5t-172.5 126.5t-106 186t-37.5 226q0 160 64 288.5t189.5 205t291.5 76.5t291.5 -77t189 -205t63.5 -288q0 -120 -37.5 -226t-106 -186t-172 -126.5t-228.5 -46.5zM623 18q46 0 81 25.5t64.5 86t45 172t15.5 271.5q0 127 -10.5 223t-28.5 155.5
t-45 96t-56 50.5t-66 14t-66 -14t-56 -50.5t-45.5 -96t-29 -155.5t-10.5 -223q0 -160 15.5 -271.5t45 -172t65 -86t81.5 -25.5zM264 571q0 148 27.5 257.5t68.5 164.5l-2 2q-133 -154 -133 -424t133 -424l2 3q-41 55 -68.5 164.5t-27.5 256.5zM981 571q0 -147 -27.5 -256.5
t-68.5 -164.5l2 -3q133 154 133 424t-133 424l-2 -2q41 -55 68.5 -164.5t27.5 -257.5z" />
    <glyph glyph-name="one.osf" horiz-adv-x="884" 
d="M629 37l245 -21v-16h-798v16l246 21v1005l-259 -79v28l551 172h15v-1126zM477 139q19 228 19 426q0 196 -19 424h-4q-18 -216 -18 -424q0 -210 18 -426h4z" />
    <glyph glyph-name="two.osf" horiz-adv-x="1054" 
d="M963 395h18l-27 -395h-891v125q12 6 32.5 17.5t80 49.5t113.5 79t120 105t113.5 128.5t80 147.5t32.5 165q0 131 -52.5 213t-152.5 82q-114 0 -197 -59l3 -19h10q66 0 106.5 -44.5t40.5 -102.5t-41 -104t-106 -46q-67 0 -107.5 44t-40.5 106q0 106 107 181t287 75
q238 0 359.5 -99.5t121.5 -265.5q0 -81 -37.5 -155t-97 -127t-131.5 -98t-144 -73.5t-131.5 -49t-97.5 -29.5l-37 -8h526q36 0 62 11t40 32.5t21 41.5t12 50zM764 788q0 -93 -65.5 -191.5t-131.5 -143.5l4 -2q35 22 70 51.5t73 72t61.5 98.5t23.5 115q0 153 -129 242l-4 -4
q41 -33 69.5 -95.5t28.5 -142.5zM856 111v4q-54 3 -149.5 10.5t-145.5 7.5q-47 0 -144 -7.5t-151 -10.5v-4q59 -3 154 -11t141 -8q49 0 142.5 8t152.5 11z" />
    <glyph glyph-name="three.osf" horiz-adv-x="1077" 
d="M575 483q185 0 307 -102.5t122 -243.5q0 -157 -132 -255.5t-403 -98.5q-99 0 -177.5 25t-124.5 65t-69.5 85t-23.5 89q0 63 40 106.5t107 43.5q66 0 107 -46t41 -104t-41 -102.5t-107 -44.5h-8l-4 -25q91 -61 199 -61q49 0 91 14.5t81.5 48.5t62.5 100.5t23 159.5
q0 81 -23 147t-60.5 105.5t-80.5 60.5t-86 21h-27v31h27q80 0 144.5 74t64.5 212q0 75 -13.5 133t-34.5 93.5t-50.5 58t-58 31t-60.5 8.5q-113 0 -199 -61l4 -25h8q66 0 107 -44.5t41 -102.5t-41 -104t-107 -46q-67 0 -107 43.5t-40 106.5q0 47 24 92.5t70.5 84.5t124.5 63
t176 24q128 0 225 -27.5t154.5 -77t86 -112.5t28.5 -138q0 -125 -110 -212t-278 -87v-6zM676 1034q37 -18 67.5 -74.5t30.5 -142.5q0 -88 -30 -148t-68 -75l4 -4q46 14 89.5 72.5t43.5 154.5q0 50 -14.5 91.5t-37 67t-42.5 40.5t-39 22zM696 -129q36 19 69 48t63 86.5
t30 125.5q0 53 -16.5 99t-43 77t-51.5 51t-51 33l-4 -4q49 -26 85 -97.5t36 -158.5q0 -85 -36.5 -157.5t-84.5 -98.5z" />
    <glyph glyph-name="four.osf" horiz-adv-x="1107" 
d="M1079 98v-30h-202v-273h-308v273h-557v30l850 1024h15v-1024h202zM727 -66q2 31 8.5 134t9.5 173.5t3 139.5q0 70 -3 137.5t-9.5 154.5t-8.5 130h-4q-2 -43 -8.5 -130t-9.5 -154.5t-3 -137.5q0 -69 3 -139.5t9.5 -173.5t8.5 -134h4zM55 98h514v615z" />
    <glyph glyph-name="five.osf" horiz-adv-x="1079" 
d="M444 618q176 0 303.5 -44.5t200 -141t72.5 -237.5q0 -211 -152 -310.5t-424 -99.5q-168 0 -271 75.5t-103 188.5q0 63 40 106.5t107 43.5q66 0 107 -46t41 -104t-41 -102.5t-107 -44.5h-8l-4 -27q81 -59 178 -59q45 0 85 9.5t80 35.5t69 67.5t47 109.5t18 157
q0 90 -18 160t-47 112.5t-69 70t-80 38t-85 10.5q-64 0 -123 -13.5t-86 -26.5l-27 -14v596h738l30 158h19l-27 -395l-725 -2v-309q107 38 262 38zM236 1010v-4q60 -3 154 -11t140 -8q49 0 142.5 8t152.5 11v4q-54 3 -149.5 10.5t-145.5 7.5q-47 0 -143 -7.5t-151 -10.5z
M709 -84q26 14 51 36.5t51 57t42.5 84.5t16.5 107q0 58 -16 108t-43 84t-51.5 55.5t-50.5 36.5l-4 -4q48 -29 84 -108t36 -172t-36 -172.5t-84 -108.5z" />
    <glyph glyph-name="six.osf" horiz-adv-x="1187" 
d="M625 817q136 0 238 -31t161.5 -87t88 -126t28.5 -155q0 -90 -35 -168.5t-101 -138t-168.5 -93.5t-228.5 -34t-228.5 42t-168 115.5t-100.5 170t-35 208.5q0 134 40 250.5t105 198.5t151.5 148.5t175 107.5t179.5 68.5t162 38.5t125 11v-30q-46 0 -104 -19t-125 -61
t-128.5 -100.5t-116.5 -146.5t-87 -189q82 20 172 20zM367 147l2 3q-103 103 -103 391q0 103 27.5 200t68 167.5t94 132t98 98.5t87.5 63l-2 2q-51 -29 -96 -60.5t-107.5 -92.5t-106.5 -129t-76 -168.5t-32 -212.5q0 -137 40.5 -236.5t105.5 -157.5zM608 14q195 0 195 383
q0 209 -56 298t-161 89q-78 0 -142 -22q-30 -108 -30 -242q0 -506 194 -506zM834 109q59 33 110 108.5t51 183.5q0 109 -51 184.5t-110 108.5l-5 -4q48 -29 84.5 -112.5t36.5 -176.5t-36.5 -176t-84.5 -112z" />
    <glyph glyph-name="seven.osf" horiz-adv-x="1062" 
d="M1061 1128v-124l-2 -2q-119 -86 -226 -243q-256 -373 -266 -915v-43h-307q0 116 27 233.5t68 213t98 190t110 162.5t112 132t94.5 97.5t66.5 59.5h-744l-31 -158h-18l27 395zM227 999q58 -3 162.5 -10.5t155.5 -7.5q53 0 154.5 7.5t160.5 10.5v5q-59 3 -160.5 10.5
t-154.5 7.5q-51 0 -155.5 -7.5t-162.5 -10.5v-5zM502 236q68 208 139 337h-4q-118 -168 -170 -329q-25 -78 -37 -182t-12 -173h4q31 198 80 347z" />
    <glyph glyph-name="eight.osf" horiz-adv-x="1298" 
d="M797 684q185 0 306.5 -99.5t121.5 -236.5q0 -78 -32.5 -142t-99.5 -115t-180 -79t-264 -28t-264 28t-179.5 79t-99 115t-32.5 142q0 137 121.5 236.5t306.5 99.5v6q-154 0 -255.5 87t-101.5 212q0 157 124 255.5t380 98.5t380 -98.5t124 -255.5q0 -125 -101 -212
t-255 -87v-6zM473 989q0 -139 51 -213t117 -74h16q66 0 117 74t51 213q0 75 -10.5 133t-27.5 93.5t-40.5 58t-47.5 31t-50 8.5q-27 -1 -50 -10t-47 -31.5t-41 -57.5t-27.5 -93t-10.5 -132zM420 801q-38 15 -68 75t-30 148q0 86 30.5 142.5t67.5 74.5l-4 4q-19 -7 -39 -22
t-42.5 -40.5t-37 -67t-14.5 -91.5q0 -96 43.5 -154.5t89.5 -72.5zM883 1241q37 -18 67.5 -74.5t30.5 -142.5q0 -88 -30 -148t-68 -75l4 -4q46 14 89.5 72.5t43.5 154.5q0 50 -14.5 91.5t-37 67t-42.5 40.5t-39 22zM649 14q47 0 88 15.5t78.5 50.5t59.5 103.5t22 164.5
q0 153 -75 238.5t-165 85.5h-16q-90 0 -165 -85.5t-75 -238.5q0 -96 22 -164.5t59.5 -103.5t78.5 -50.5t88 -15.5zM377 82q-48 26 -84.5 98.5t-36.5 157.5q0 87 36 158.5t85 97.5l-4 4q-26 -13 -51 -33t-51.5 -51t-43 -77t-16.5 -99q0 -68 30 -125.5t63 -86.5t69 -48z
M930 78q36 19 69 48t63 86.5t30 125.5q0 53 -16.5 99t-43 77t-51.5 51t-51 33l-4 -4q49 -26 85 -97.5t36 -158.5q0 -85 -36.5 -157.5t-84.5 -98.5z" />
    <glyph glyph-name="nine.osf" horiz-adv-x="1181" 
d="M578 1128q126 0 228.5 -42t168 -115.5t100.5 -170t35 -208.5q0 -134 -40 -250.5t-105 -198.5t-151.5 -148.5t-175 -107.5t-179.5 -68.5t-162 -38.5t-125 -11v30q46 0 104 19t125 61t128.5 100.5t116.5 146.5t87 189q-82 -20 -172 -20q-136 0 -238 31t-161.5 87t-88 126
t-28.5 155q0 90 35 168.5t101 138t168.5 93.5t228.5 34zM600 328q77 0 141 22q31 112 31 242q0 506 -194 506q-195 0 -195 -383q0 -209 56 -298t161 -89zM551 -86q39 22 66 39t74.5 53t81 72t73 92.5t64.5 117t42 143.5t17 175q0 124 -48.5 232.5t-113.5 173.5l-2 -2
q51 -63 85 -175t34 -229q0 -119 -28 -224.5t-67.5 -176.5t-94.5 -133t-97 -95t-88 -61zM338 424q-46 28 -76.5 110t-30.5 179q0 96 30.5 178t76.5 110l-4 5q-55 -31 -101.5 -107.5t-46.5 -185.5q0 -110 46 -186t102 -107z" />
    <glyph glyph-name="guillemotleft" horiz-adv-x="997" 
d="M496 184l-422 328v39l422 328v-25l-174 -322l174 -321v-27zM870 184l-421 328v39l421 328v-25l-174 -322l174 -321v-27z" />
    <glyph glyph-name="guillemotright" horiz-adv-x="976" 
d="M127 211l174 321l-174 322v25l422 -328v-39l-422 -328v27zM481 211l174 321l-174 322v25l422 -328v-39l-422 -328v27z" />
    <glyph glyph-name="caron.alt" 
d="M184 901v320h219v-19l-194 -301h-25z" />
    <glyph glyph-name="acute.case" 
d="M102 942l123 258h240v-18l-318 -240h-45z" />
    <glyph glyph-name="breve.case" 
d="M541 1241q1 -131 -65 -203.5t-177 -72.5q-112 0 -175.5 67.5t-62.5 208.5h27q0 -49 50 -88t161 -39t163 39t52 88h27z" />
    <glyph glyph-name="caron.case" 
d="M586 1231h24l-184 -289h-178l-185 289h25l250 -168z" />
    <glyph glyph-name="circumflex.case" 
d="M586 942l-248 158l-250 -158h-25l185 279h178l184 -279h-24z" />
    <glyph glyph-name="dieresis.case" 
 />
    <glyph glyph-name="dotaccent.case" 
 />
    <glyph glyph-name="grave.case" 
d="M362 942h-45l-317 240v18h240z" />
    <glyph glyph-name="hungarumlaut.case" 
d="M102 942l123 258h240v-18l-318 -240h-45zM408 942l122 258h240v-18l-317 -240h-45z" />
    <glyph glyph-name="macron.case" 
 />
    <glyph glyph-name="ring.case" 
 />
    <glyph glyph-name="tilde.case" 
 />
    <glyph glyph-name="Ocircumfluex" horiz-adv-x="1482" 
d="M741 1556l-249 -157h-25l184 278h178l185 -278h-25zM741 1343q155 0 283 -54.5t211.5 -147.5t129.5 -216t46 -261t-45.5 -261t-129 -216.5t-212 -148t-283.5 -54.5t-283.5 54.5t-211.5 148t-128.5 216.5t-45.5 261t45.5 261t129 216t211.5 147.5t283 54.5zM741 14
q58 0 106 18.5t91 65t72 119t46 186t17 261.5t-17 261.5t-46.5 186t-72.5 118.5t-90.5 64.5t-105.5 18.5t-105.5 -18.5t-90.5 -64.5t-72 -118.5t-46 -186t-17 -261.5t17 -261.5t46 -186t71.5 -119t90.5 -65t106 -18.5zM422 147l2 3q-64 55 -119 194.5t-55 319.5t55 319.5
t119 194.5l-2 2q-34 -27 -67.5 -67.5t-69.5 -103t-58 -153t-22 -192.5t22 -192.5t58 -153t69.5 -103.5t67.5 -68zM1061 147q34 27 67.5 68t69.5 103.5t58 153t22 192.5t-22 192.5t-58 153t-69.5 103t-67.5 67.5l-2 -2q64 -55 119 -194.5t55 -319.5t-55 -319.5t-119 -194.5z
" />
    <glyph glyph-name="NULL" horiz-adv-x="303" 
 />
    <glyph glyph-name="slashO" horiz-adv-x="962" 
d="M61 -20l813 1404l27 -14l-813 -1405z" />
    <glyph glyph-name="slasho" horiz-adv-x="655" 
d="M61 -20l506 872l27 -14l-506 -873z" />
    <glyph glyph-name="IJacute" horiz-adv-x="1552" 
d="M594 1640l-318 -239h-45l123 258h240v-19zM1450 1640l-317 -239h-46l123 258h240v-19zM631 1327v-16l-123 -15v-1265l123 -15v-16h-553v16l123 15v1265l-123 15v16h553zM1501 1327v-16l-123 -15v-907q0 -67 -11.5 -124.5t-40.5 -110.5t-73 -89.5t-113 -58.5t-157 -22
q-112 0 -186 59.5t-74 140.5q0 51 35 87t86 36t86 -36t35 -87t-35 -86t-86 -35h-6v-10q54 -41 133 -41q100 0 100 107v1177l-123 15v16h553zM356 139q21 381 21 525q0 143 -21 524h-4q-20 -362 -20 -524t20 -525h4zM1178 147q36 43 54.5 193t18.5 328q0 167 -20 520h-4
q-21 -370 -21 -520q0 -28 0.5 -126.5t0 -137.5t-3 -104.5t-9.5 -99.5t-18 -50z" />
    <glyph glyph-name="ijacute" horiz-adv-x="1509" 
d="M551 1464l-277 -260h-24l82 279h219v-19zM1311 1464l-277 -260h-24l82 279h219v-19zM614 1128v-16l-116 -14v-1067l116 -15v-16h-540v16l116 15v1067l-116 14v16h540zM1462 1128v-16l-116 -14v-756q0 -73 -18.5 -133.5t-60 -112t-118 -81t-182.5 -29.5q-115 0 -186.5 54
t-73.5 126v2q0 47 32 83t80 36q50 0 84.5 -36t34.5 -83q0 -46 -34 -81t-83 -36q58 -35 131 -35q42 0 63 21t21 49v1012l-114 14v16h540zM346 139q19 228 19 426q0 196 -19 424h-4q-18 -216 -18 -424q0 -210 18 -426h4zM1141 147q35 42 54 167t19 251q0 203 -18 424h-4
q-18 -220 -18 -424q0 -247 -10 -323q-8 -67 -25 -92z" />
    </font>
</defs>
</svg>
